  0
SECTION
  2
HEADER
  9
$ACADVER
  1
AC1009
  9
$DWGCODEPAGE
  3
ansi_1251
  9
$INSBASE
 10
0.0
 20
0.0
 30
0.0
  9
$EXTMIN
 10
0.0
 20
0.0
 30
1.0000000000000000E+20
  9
$EXTMAX
 10
297.0
 20
210.0
 30
-1.0000000000000000E+20
  9
$LIMMIN
 10
0.0
 20
0.0
  9
$LIMMAX
 10
0.0
 20
0.0
  9
$ORTHOMODE
 70
               0
  9
$REGENMODE
 70
               1
  9
$FILLMODE
 70
               1
  9
$QTEXTMODE
 70
               0
  9
$MIRRTEXT
 70
               1
  9
$DRAGMODE
 70
               2
  9
$LTSCALE
 40
1.0
  9
$OSMODE
 70
               0
  9
$ATTMODE
 70
               1
  9
$TEXTSIZE
 40
0.125
  9
$TRACEWID
 40
0.05
  9
$TEXTSTYLE
  7
STANDARD
  9
$CLAYER
  8
0
  9
$CELTYPE
  6
CONTINUOUS
  9
$CECOLOR
 62
              40
  9
$DIMSCALE
 40
1.0
  9
$DIMASZ
 40
0.125
  9
$DIMEXO
 40
0.0625
  9
$DIMDLI
 40
0.25
  9
$DIMRND
 40
0.0
  9
$DIMDLE
 40
0.0
  9
$DIMEXE
 40
0.125
  9
$DIMTP
 40
0.005
  9
$DIMTM
 40
-0.005
  9
$DIMTXT
 40
3.0
  9
$DIMCEN
 40
0.09
  9
$DIMTSZ
 40
0.0
  9
$DIMTOL
 70
               0
  9
$DIMLIM
 70
               0
  9
$DIMTIH
 70
               1
  9
$DIMTOH
 70
               1
  9
$DIMSE1
 70
               0
  9
$DIMSE2
 70
               0
  9
$DIMTAD
 70
               0
  9
$DIMZIN
 70
               0
  9
$DIMBLK
  1

  9
$DIMASO
 70
               1
  9
$DIMSHO
 70
               1
  9
$DIMPOST
  1

  9
$DIMAPOST
  1

  9
$DIMALT
 70
               0
  9
$DIMALTD
 70
               0
  9
$DIMALTF
 40
25.399999999999999
  9
$DIMLFAC
 40
1.0
  9
$DIMTOFL
 70
               1
  9
$DIMTVP
 40
0.0
  9
$DIMTIX
 70
               0
  9
$DIMSOXD
 70
               0
  9
$DIMSAH
 70
               0
  9
$DIMBLK1
  1

  9
$DIMBLK2
  1

  9
$DIMSTYLE
  2

  9
$DIMCLRD
 70
               0
  9
$DIMCLRE
 70
               0
  9
$DIMCLRT
 70
               0
  9
$DIMTFAC
 40
1.0
  9
$DIMGAP
 40
0.0625
  9
$LUNITS
 70
               2
  9
$LUPREC
 70
               3
  9
$AXISMODE
 70
               0
  9
$AXISUNIT
 10
0.0
 20
0.0
  9
$SKETCHINC
 40
0.1
  9
$FILLETRAD
 40
5.0
  9
$AUNITS
 70
               0
  9
$AUPREC
 70
               1
  9
$MENU
  1
acad
  9
$ELEVATION
 40
0.0
  9
$PELEVATION
 40
0.0
  9
$THICKNESS
 40
0.0
  9
$LIMCHECK
 70
               0
  9
$BLIPMODE
 70
               1
  9
$CHAMFERA
 40
10.0
  9
$CHAMFERB
 40
10.0
  9
$SKPOLY
 70
               0
  9
$TDCREATE
 40
0.000000000
  9
$TDUPDATE
 40
0.000000000
  9
$TDINDWG
 40
0.0000000000
  9
$TDUSRTIMER
 40
0.0000000000
  9
$USRTIMER
 70
               1
  9
$ANGBASE
 50
0.0
  9
$ANGDIR
 70
               0
  9
$PDMODE
 70
               0
  9
$PDSIZE
 40
-0.01
  9
$PLINEWID
 40
0.0
  9
$COORDS
 70
               0
  9
$SPLFRAME
 70
               0
  9
$SPLINETYPE
 70
               6
  9
$SPLINESEGS
 70
               8
  9
$ATTDIA
 70
               0
  9
$ATTREQ
 70
               1
  9
$HANDLING
 70
               1
  9
$HANDSEED
  5
321
  9
$SURFTAB1
 70
               6
  9
$SURFTAB2
 70
               6
  9
$SURFTYPE
 70
               6
  9
$SURFU
 70
               6
  9
$SURFV
 70
               6
  9
$UCSNAME
  2

  9
$UCSORG
 10
0.0
 20
0.0
 30
0.0
  9
$UCSXDIR
 10
1.0
 20
0.0
 30
0.0
  9
$UCSYDIR
 10
0.0
 20
1.0
 30
0.0
  9
$PUCSNAME
  2

  9
$PUCSORG
 10
0.0
 20
0.0
 30
0.0
  9
$PUCSXDIR
 10
1.0
 20
0.0
 30
0.0
  9
$PUCSYDIR
 10
0.0
 20
1.0
 30
0.0
  9
$USERI1
 70
               0
  9
$USERI2
 70
               0
  9
$USERI3
 70
               0
  9
$USERI4
 70
               0
  9
$USERI5
 70
               0
  9
$USERR1
 40
0.0
  9
$USERR2
 40
0.0
  9
$USERR3
 40
0.0
  9
$USERR4
 40
0.0
  9
$USERR5
 40
0.0
  9
$WORLDVIEW
 70
               1
  9
$SHADEDGE
 70
               3
  9
$SHADEDIF
 70
              70
  9
$TILEMODE
 70
               0
  9
$MAXACTVP
 70
              16
  9
$PINSBASE
 10
0.0
 20
0.0
 30
0.0
  9
$PLIMCHECK
 70
               0
  9
$PEXTMIN
 10
0.0
 20
0.0
 30
0.0
  9
$PEXTMAX
 10
297.0
 20
210.0
 30
0.0
  9
$PLIMMIN
 10
0.0
 20
0.0
  9
$PLIMMAX
 10
297.0
 20
210.0
  9
$UNITMODE
 70
               0
  9
$VISRETAIN
 70
               0
  9
$PLINEGEN
 70
               1
  9
$PSLTSCALE
 70
               0
  9
$TREEDEPTH
 70
            3020
  9
$DWGCODEPAGE
  3
ansi_1251
  0
ENDSEC
  0
SECTION
  2
TABLES
  0
TABLE
  2
VPORT
 70
               1
  0
VPORT
  2
*ACTIVE
 70
               0
 10
0.0
 20
0.0
 11
297.0
 21
210.0
 12
148.5
 22
105.0
 13
0.0
 23
0.0
 14
1.0
 24
1.0
 15
0.0
 25
0.0
 16
0.0
 26
0.0
 36
1.0
 17
0.0
 27
0.0
 37
0.0
 40
210.0
 41
1.4142857
 42
50.0
 43
0.0
 44
0.0
 50
0.0
 51
0.0
 71
               0
 72
             100
 73
               1
 74
               3
 75
               0
 76
               0
 77
               0
 78
               0
  0
ENDTAB
  0
TABLE
  2
LTYPE
 70
               8
  0
LTYPE
  2
CONTINUOUS
 70
              64
  3
Solid line
 72
              65
 73
               0
 40
0.0
  0
LTYPE
  2
HIDDENNEW00
 70
              64
  3
_
 72
              65
 73
               3
 40
4.5
 49
1.5
 49
-1.5
 49
1.5
  0
LTYPE
  2
HIDDENNEW01
 70
              64
  3
_
 72
              65
 73
               3
 40
4.5
 49
1.5
 49
-1.5
 49
1.5
  0
LTYPE
  2
HIDDEN
 70
              64
  3
_
 72
              65
 73
               3
 40
4.5
 49
1.5
 49
-1.5
 49
1.5
  0
LTYPE
  2
CENTERLINE
 70
              64
  3
_
 72
              65
 73
               5
 40
30.0
 49
12.0
 49
-1.5
 49
3.0
 49
-1.5
 49
12.0
  0
LTYPE
  2
PHANTOM
 70
              64
  3
_
 72
              65
 73
               7
 40
29.5
 49
9.5
 49
-1.5
 49
3.0
 49
-1.5
 49
3.0
 49
-1.5
 49
9.5
  0
LTYPE
  2
SHORT_DASH
 70
              64
  3
_
 72
              65
 73
               3
 40
3.0
 49
0.75
 49
-1.5
 49
0.75
  0
LTYPE
  2
LONG_DASH
 70
              64
  3
_
 72
              65
 73
               3
 40
9.0
 49
2.25
 49
-4.5
 49
2.25
  0
ENDTAB
  0
TABLE
  2
LAYER
 70
               4
  0
LAYER
  2
0
 70
               0
 62
               7
  6
CONTINUOUS
  0
LAYER
  2
1
 70
               0
 62
               7
  6
CONTINUOUS
  0
LAYER
  2
2
 70
               0
 62
               7
  6
CONTINUOUS
  0
LAYER
  2
104
 70
               0
 62
               7
  6
CONTINUOUS
  0
ENDTAB
  0
TABLE
  2
STYLE
 70
               1
  0
STYLE
  2
STANDARD
 70
              64
 40
0.0
 41
1.0
 50
0.0
 71
               0
 42
1.0
  3
monotxt.shx
  4

  0
ENDTAB
  0
TABLE
  2
VIEW
 70
               0
  0
ENDTAB
  0
TABLE
  2
UCS
 70
               0
  0
ENDTAB
  0
TABLE
  2
APPID
 70
               1
  0
APPID
  2
ACAD
 70
               0
  0
ENDTAB
  0
TABLE
  2
DIMSTYLE
 70
              10
  0
DIMSTYLE
  2
DSTYLE1
 70
               0
  3

  4

  5

  6

  7

 40
1.0
 41
3.0
 42
0.0
 43
0.38
 44
3.0
 45
0.1
 46
0.0
 47
0.2
 48
1.0
 71
               1
 72
               0
 73
               0
 74
               0
 75
               1
 76
               1
 77
               1
 78
               3
140
0.5
141
0.09
142
0.0
143
0.039370079
144
0.2
145
0.0
146
1.0
147
1.5
170
               0
171
               2
172
               0
173
               0
174
               0
175
               0
176
               0
177
               0
178
               0
  0
DIMSTYLE
  2
DSTYLE2
 70
               0
  3

  4

  5

  6

  7

 40
1.0
 41
3.0
 42
0.0
 43
0.38
 44
3.0
 45
0.1
 46
0.0
 47
0.0
 48
0.05
 71
               1
 72
               0
 73
               0
 74
               0
 75
               1
 76
               0
 77
               1
 78
               3
140
0.5
141
0.09
142
0.0
143
0.039370079
144
0.2
145
0.0
146
1.0
147
1.5
170
               0
171
               2
172
               0
173
               0
174
               0
175
               0
176
               0
177
               0
178
               0
  0
DIMSTYLE
  2
DSTYLE3
 70
               0
  3

  4

  5

  6

  7

 40
1.0
 41
3.0
 42
0.0
 43
0.38
 44
3.0
 45
0.1
 46
0.0
 47
1.0
 48
1.0
 71
               0
 72
               0
 73
               0
 74
               0
 75
               1
 76
               1
 77
               1
 78
               3
140
0.5
141
0.09
142
0.0
143
0.039370079
144
0.2
145
0.0
146
1.0
147
1.5
170
               0
171
               2
172
               0
173
               0
174
               0
175
               0
176
               0
177
               0
178
               0
  0
DIMSTYLE
  2
DSTYLE4
 70
               0
  3

  4

  5

  6

  7

 40
1.0
 41
3.0
 42
0.0
 43
0.38
 44
3.0
 45
0.1
 46
0.0
 47
0.2
 48
1.0
 71
               1
 72
               0
 73
               0
 74
               0
 75
               0
 76
               0
 77
               1
 78
               3
140
0.5
141
0.09
142
0.0
143
0.039370079
144
0.2
145
0.0
146
1.0
147
1.5
170
               0
171
               2
172
               0
173
               0
174
               0
175
               0
176
               0
177
               0
178
               0
  0
DIMSTYLE
  2
DSTYLE5
 70
               0
  3

  4

  5

  6

  7

 40
1.0
 41
3.0
 42
0.0
 43
0.38
 44
3.0
 45
0.01
 46
0.0
 47
0.2
 48
0.0
 71
               1
 72
               0
 73
               0
 74
               0
 75
               0
 76
               0
 77
               1
 78
               3
140
0.5
141
0.09
142
0.0
143
0.039370079
144
0.2
145
0.0
146
1.0
147
1.5
170
               0
171
               2
172
               0
173
               0
174
               0
175
               0
176
               0
177
               0
178
               0
  0
DIMSTYLE
  2
DSTYLE6
 70
               0
  3

  4

  5

  6

  7

 40
1.0
 41
3.0
 42
0.0
 43
0.38
 44
3.0
 45
0.1
 46
0.0
 47
0.0
 48
0.1
 71
               1
 72
               0
 73
               0
 74
               0
 75
               0
 76
               0
 77
               1
 78
               3
140
0.5
141
0.09
142
0.0
143
0.039370079
144
0.2
145
0.0
146
1.0
147
1.5
170
               0
171
               2
172
               0
173
               0
174
               0
175
               0
176
               0
177
               0
178
               0
  0
DIMSTYLE
  2
DSTYLE7
 70
               0
  3

  4

  5

  6

  7

 40
1.0
 41
3.0
 42
0.0
 43
0.38
 44
3.0
 45
0.01
 46
0.0
 47
0.05
 48
1.0
 71
               1
 72
               0
 73
               0
 74
               0
 75
               0
 76
               0
 77
               1
 78
               3
140
0.5
141
0.09
142
0.0
143
0.039370079
144
0.2
145
0.0
146
1.0
147
1.5
170
               0
171
               2
172
               0
173
               0
174
               0
175
               0
176
               0
177
               0
178
               0
  0
DIMSTYLE
  2
DSTYLE8
 70
               0
  3

  4

  5

  6

  7

 40
1.0
 41
3.0
 42
0.0
 43
0.38
 44
3.0
 45
0.1
 46
0.0
 47
0.0
 48
0.4
 71
               1
 72
               0
 73
               0
 74
               0
 75
               0
 76
               0
 77
               1
 78
               3
140
0.5
141
0.09
142
0.0
143
0.039370079
144
0.2
145
0.0
146
1.0
147
1.5
170
               0
171
               2
172
               0
173
               0
174
               0
175
               0
176
               0
177
               0
178
               0
  0
DIMSTYLE
  2
DSTYLE9
 70
               0
  3

  4

  5

  6

  7

 40
1.0
 41
3.0
 42
0.0
 43
0.38
 44
3.0
 45
0.1
 46
0.0
 47
1.0
 48
1.0
 71
               0
 72
               0
 73
               0
 74
               0
 75
               0
 76
               0
 77
               1
 78
               3
140
0.5
141
0.09
142
0.0
143
0.039370079
144
0.2
145
0.0
146
1.0
147
1.5
170
               0
171
               2
172
               0
173
               0
174
               0
175
               0
176
               0
177
               0
178
               0
  0
DIMSTYLE
  2
DSTYLE10
 70
               0
  3

  4

  5

  6

  7

 40
1.0
 41
3.0
 42
0.0
 43
0.38
 44
3.0
 45
0.1
 46
0.0
 47
0.0
 48
0.03
 71
               1
 72
               0
 73
               0
 74
               0
 75
               1
 76
               0
 77
               1
 78
               3
140
0.5
141
0.09
142
0.0
143
0.039370079
144
0.2
145
0.0
146
1.0
147
1.5
170
               0
171
               2
172
               0
173
               0
174
               0
175
               0
176
               0
177
               0
178
               0
  0
ENDTAB
  0
ENDSEC
  0
SECTION
  2
BLOCKS
  0
BLOCK
  8
0
  5
1FD
  2
*F0
 70
              65
 10
0.0
 20
0.0
 30
0.0
  3
*F0
  0
LINE
  8
2
  6
CONTINUOUS
 62
               1
  5
1FE
 10
0.0
 20
0.0
 30
0.0
 11
2.7997052999999998
 21
1.7423971
 31
0.0
  0
LINE
  8
2
  6
CONTINUOUS
 62
               1
  5
1FF
 10
2.7997052999999998
 20
1.7423971
 30
0.0
 11
2.2374626000000002
 21
1.5102698000000001
 31
0.0
  0
LINE
  8
2
  6
CONTINUOUS
 62
               1
  5
200
 10
2.7997052999999998
 20
1.7423971
 30
0.0
 11
2.3431386000000001
 21
1.3404682000000001
 31
0.0
  0
LINE
  8
2
  6
CONTINUOUS
 62
               1
  5
201
 10
2.2374626000000002
 20
1.5102698000000001
 30
0.0
 11
2.3431386000000001
 21
1.3404682000000001
 31
0.0
  0
ENDBLK
  8
0
  5
202
  0
BLOCK
  8
0
  5
203
  2
*T1
 70
              65
 10
0.0
 20
0.0
 30
0.0
  3
*T1
  0
TEXT
  8
1
  6
CONTINUOUS
 62
               1
  5
204
 10
31.537500000000001
 20
0.0
 30
0.0
 40
2.8999999999999999
  1
Male Hight power contact, 20A
 41
0.75
 72
               1
 11
0.0
 21
0.0
 31
0.0
  0
TEXT
  8
1
  6
CONTINUOUS
 62
               1
  5
205
 10
29.362500000000001
 20
-4.3499999999999996
 30
0.0
 40
2.8999999999999999
  1
straight cable terminaison,
 41
0.75
 72
               1
 11
0.0
 21
-4.3499999999999996
 31
0.0
  0
TEXT
  8
1
  6
CONTINUOUS
 62
               1
  5
206
 10
6.5250000000000004
 20
-8.6999999999999993
 30
0.0
 40
2.8999999999999999
  1
solder
 41
0.75
 72
               1
 11
0.0
 21
-8.6999999999999993
 31
0.0
  0
TEXT
  8
1
  6
CONTINUOUS
 62
               1
  5
207
 10
1.0874999999999999
 20
-13.050000000000001
 30
0.0
 40
2.8999999999999999
  1

 41
0.75
 72
               1
 11
0.0
 21
-13.050000000000001
 31
0.0
  0
TEXT
  8
1
  6
CONTINUOUS
 62
               1
  5
208
 10
9.7874999999999996
 20
-17.399999999999999
 30
0.0
 40
2.8999999999999999
  1

 41
0.75
 72
               1
 11
0.0
 21
-17.399999999999999
 31
0.0
  0
ENDBLK
  8
0
  5
209
  0
BLOCK
  8
0
  5
20A
  2
*D2
 70
              65
 10
0.0
 20
0.0
 30
0.0
  3
*D2
  0
LINE
  8
2
  6
CONTINUOUS
 62
               7
  5
20B
 10
144.81563
 20
121.10138999999999
 30
0.0
 11
144.71563
 21
121.70139
 31
0.0
  0
LINE
  8
2
  6
CONTINUOUS
 62
               7
  5
20C
 10
144.81563
 20
121.10138999999999
 30
0.0
 11
144.91562999999999
 21
121.70139
 31
0.0
  0
LINE
  8
2
  6
CONTINUOUS
 62
               7
  5
20D
 10
144.71563
 20
121.70139
 30
0.0
 11
144.91562999999999
 21
121.70139
 31
0.0
  0
LINE
  8
2
  6
CONTINUOUS
 62
               7
  5
20E
 10
144.81563
 20
121.10138999999999
 30
0.0
 11
144.81563
 21
125.58566
 31
0.0
  0
TEXT
  8
2
  6
CONTINUOUS
 62
               7
  5
20F
 10
144.51543000000001
 20
122.53565999999999
 30
0.0
 40
0.5
  1
%%c
 50
90.0
 41
0.75
  0
TEXT
  8
2
  6
CONTINUOUS
 62
               7
  5
210
 10
144.51543000000001
 20
122.91065999999999
 30
0.0
 40
0.5
  1
5,2
 50
90.0
 41
0.75
  0
TEXT
  8
2
  6
CONTINUOUS
 62
               7
  5
211
 10
144.45293000000001
 20
124.16065999999999
 30
0.0
 40
0.375
  1
%%p0,2
 50
90.0
 41
0.75
  0
ENDBLK
  8
0
  5
212
  0
BLOCK
  8
0
  5
213
  2
*D3
 70
              65
 10
0.0
 20
0.0
 30
0.0
  3
*D3
  0
LINE
  8
2
  6
CONTINUOUS
 62
               7
  5
214
 10
146.79174
 20
120.89888999999999
 30
0.0
 11
148.73497
 21
120.89888999999999
 31
0.0
  0
LINE
  8
2
  6
CONTINUOUS
 62
               7
  5
215
 10
148.13497000000001
 20
120.89888999999999
 30
0.0
 11
148.03496999999999
 21
121.49889
 31
0.0
  0
LINE
  8
2
  6
CONTINUOUS
 62
               7
  5
216
 10
148.13497000000001
 20
120.89888999999999
 30
0.0
 11
148.23497
 21
121.49889
 31
0.0
  0
LINE
  8
2
  6
CONTINUOUS
 62
               7
  5
217
 10
148.03496999999999
 20
121.49889
 30
0.0
 11
148.23497
 21
121.49889
 31
0.0
  0
LINE
  8
2
  6
CONTINUOUS
 62
               7
  5
218
 10
148.13497000000001
 20
120.89888999999999
 30
0.0
 11
148.13497000000001
 21
125.73211999999999
 31
0.0
  0
TEXT
  8
2
  6
CONTINUOUS
 62
               7
  5
219
 10
147.61601999999999
 20
122.40087
 30
0.0
 40
0.5
  1
%%c
 50
90.0
 41
0.75
  0
TEXT
  8
2
  6
CONTINUOUS
 62
               7
  5
21A
 10
147.61601999999999
 20
122.77587
 30
0.0
 40
0.5
  1
4,8
 50
90.0
 41
0.75
  0
TEXT
  8
2
  6
CONTINUOUS
 62
               7
  5
21B
 10
147.27226999999999
 20
124.02587
 30
0.0
 40
0.375
  1

 50
90.0
 41
0.75
  0
TEXT
  8
2
  6
CONTINUOUS
 62
               7
  5
21C
 10
147.83476999999999
 20
124.02587
 30
0.0
 40
0.375
  1
-0,05
 50
90.0
 41
0.75
  0
ENDBLK
  8
0
  5
21D
  0
BLOCK
  8
0
  5
21E
  2
*D4
 70
              65
 10
0.0
 20
0.0
 30
0.0
  3
*D4
  0
LINE
  8
2
  6
CONTINUOUS
 62
               7
  5
21F
 10
150.14222000000001
 20
121.24388999999999
 30
0.0
 11
150.04221999999999
 21
121.84389
 31
0.0
  0
LINE
  8
2
  6
CONTINUOUS
 62
               7
  5
220
 10
150.14222000000001
 20
121.24388999999999
 30
0.0
 11
150.24222
 21
121.84389
 31
0.0
  0
LINE
  8
2
  6
CONTINUOUS
 62
               7
  5
221
 10
150.04221999999999
 20
121.84389
 30
0.0
 11
150.24222
 21
121.84389
 31
0.0
  0
LINE
  8
2
  6
CONTINUOUS
 62
               7
  5
222
 10
150.14222000000001
 20
121.24388999999999
 30
0.0
 11
150.14222000000001
 21
124.82393
 31
0.0
  0
TEXT
  8
2
  6
CONTINUOUS
 62
               7
  5
223
 10
149.84201999999999
 20
122.64892999999999
 30
0.0
 40
0.5
  1
%%c
 50
90.0
 41
0.75
  0
TEXT
  8
2
  6
CONTINUOUS
 62
               7
  5
224
 10
149.84201999999999
 20
123.39892999999999
 30
0.0
 40
0.5
  1
5,5
 50
90.0
 41
0.75
  0
ENDBLK
  8
0
  5
225
  0
BLOCK
  8
0
  5
226
  2
*D5
 70
              65
 10
0.0
 20
0.0
 30
0.0
  3
*D5
  0
LINE
  8
2
  6
CONTINUOUS
 62
               7
  5
227
 10
148.94174000000001
 20
115.75888999999999
 30
0.0
 11
148.94174000000001
 21
109.55979000000001
 31
0.0
  0
LINE
  8
2
  6
CONTINUOUS
 62
               7
  5
228
 10
151.84173999999999
 20
115.75888999999999
 30
0.0
 11
151.84173999999999
 21
109.55979000000001
 31
0.0
  0
LINE
  8
2
  6
CONTINUOUS
 62
               7
  5
229
 10
148.94174000000001
 20
110.15979
 30
0.0
 11
149.54174
 21
110.05979000000001
 31
0.0
  0
LINE
  8
2
  6
CONTINUOUS
 62
               7
  5
22A
 10
148.94174000000001
 20
110.15979
 30
0.0
 11
149.54174
 21
110.25979
 31
0.0
  0
LINE
  8
2
  6
CONTINUOUS
 62
               7
  5
22B
 10
149.54174
 20
110.05979000000001
 30
0.0
 11
149.54174
 21
110.25979
 31
0.0
  0
LINE
  8
2
  6
CONTINUOUS
 62
               7
  5
22C
 10
151.84173999999999
 20
110.15979
 30
0.0
 11
151.24173999999999
 21
110.05979000000001
 31
0.0
  0
LINE
  8
2
  6
CONTINUOUS
 62
               7
  5
22D
 10
151.84173999999999
 20
110.15979
 30
0.0
 11
151.24173999999999
 21
110.25979
 31
0.0
  0
LINE
  8
2
  6
CONTINUOUS
 62
               7
  5
22E
 10
151.24173999999999
 20
110.05979000000001
 30
0.0
 11
151.24173999999999
 21
110.25979
 31
0.0
  0
LINE
  8
2
  6
CONTINUOUS
 62
               7
  5
22F
 10
151.84173999999999
 20
110.15979
 30
0.0
 11
148.94174000000001
 21
110.15979
 31
0.0
  0
LINE
  8
2
  6
CONTINUOUS
 62
               7
  5
230
 10
151.84173999999999
 20
110.15979
 30
0.0
 11
155.75765000000001
 21
110.15979
 31
0.0
  0
TEXT
  8
2
  6
CONTINUOUS
 62
               7
  5
231
 10
153.08265
 20
110.45999
 30
0.0
 40
0.5
  1
2,9
 41
0.75
  0
TEXT
  8
2
  6
CONTINUOUS
 62
               7
  5
232
 10
154.33265
 20
110.52249
 30
0.0
 40
0.375
  1
%%p0,2
 41
0.75
  0
ENDBLK
  8
0
  5
233
  0
BLOCK
  8
0
  5
234
  2
*D6
 70
              65
 10
0.0
 20
0.0
 30
0.0
  3
*D6
  0
LINE
  8
2
  6
CONTINUOUS
 62
               7
  5
235
 10
148.94174000000001
 20
115.75888999999999
 30
0.0
 11
148.94174000000001
 21
111.18839
 31
0.0
  0
LINE
  8
2
  6
CONTINUOUS
 62
               7
  5
236
 10
146.69174000000001
 20
115.90139000000001
 30
0.0
 11
146.69174000000001
 21
111.18839
 31
0.0
  0
LINE
  8
2
  6
CONTINUOUS
 62
               7
  5
237
 10
148.94174000000001
 20
111.78839000000001
 30
0.0
 11
148.34173999999999
 21
111.88839
 31
0.0
  0
LINE
  8
2
  6
CONTINUOUS
 62
               7
  5
238
 10
148.94174000000001
 20
111.78839000000001
 30
0.0
 11
148.34173999999999
 21
111.68839
 31
0.0
  0
LINE
  8
2
  6
CONTINUOUS
 62
               7
  5
239
 10
148.34173999999999
 20
111.88839
 30
0.0
 11
148.34173999999999
 21
111.68839
 31
0.0
  0
LINE
  8
2
  6
CONTINUOUS
 62
               7
  5
23A
 10
146.69174000000001
 20
111.78839000000001
 30
0.0
 11
147.29174
 21
111.88839
 31
0.0
  0
LINE
  8
2
  6
CONTINUOUS
 62
               7
  5
23B
 10
146.69174000000001
 20
111.78839000000001
 30
0.0
 11
147.29174
 21
111.68839
 31
0.0
  0
LINE
  8
2
  6
CONTINUOUS
 62
               7
  5
23C
 10
147.29174
 20
111.88839
 30
0.0
 11
147.29174
 21
111.68839
 31
0.0
  0
LINE
  8
2
  6
CONTINUOUS
 62
               7
  5
23D
 10
146.69174000000001
 20
111.78839000000001
 30
0.0
 11
148.94174000000001
 21
111.78839000000001
 31
0.0
  0
LINE
  8
2
  6
CONTINUOUS
 62
               7
  5
23E
 10
146.69174000000001
 20
111.78839000000001
 30
0.0
 11
143.52858000000001
 21
111.78839000000001
 31
0.0
  0
TEXT
  8
2
  6
CONTINUOUS
 62
               7
  5
23F
 10
143.82857999999999
 20
112.30734
 30
0.0
 40
0.5
  1
2,25
 50
360.0
 41
0.75
  0
TEXT
  8
2
  6
CONTINUOUS
 62
               7
  5
240
 10
145.45357999999999
 20
112.65109
 30
0.0
 40
0.375
  1
+0,2
 50
360.0
 41
0.75
  0
TEXT
  8
2
  6
CONTINUOUS
 62
               7
  5
241
 10
145.45357999999999
 20
112.08859
 30
0.0
 40
0.375
  1

 50
360.0
 41
0.75
  0
ENDBLK
  8
0
  5
242
  0
BLOCK
  8
0
  5
243
  2
*D7
 70
              65
 10
0.0
 20
0.0
 30
0.0
  3
*D7
  0
LINE
  8
2
  6
CONTINUOUS
 62
               1
  5
244
 10
156.66774000000001
 20
119.85138999999999
 30
0.0
 11
164.56658999999999
 21
119.85138999999999
 31
0.0
  0
LINE
  8
2
  6
CONTINUOUS
 62
               1
  5
245
 10
160.04205999999999
 20
117.15139000000001
 30
0.0
 11
164.56658999999999
 21
117.15139000000001
 31
0.0
  0
LINE
  8
2
  6
CONTINUOUS
 62
               1
  5
246
 10
163.96659
 20
119.85138999999999
 30
0.0
 11
163.86659
 21
119.25139
 31
0.0
  0
LINE
  8
2
  6
CONTINUOUS
 62
               1
  5
247
 10
163.96659
 20
119.85138999999999
 30
0.0
 11
164.06658999999999
 21
119.25139
 31
0.0
  0
LINE
  8
2
  6
CONTINUOUS
 62
               1
  5
248
 10
163.86659
 20
119.25139
 30
0.0
 11
164.06658999999999
 21
119.25139
 31
0.0
  0
LINE
  8
2
  6
CONTINUOUS
 62
               1
  5
249
 10
163.96659
 20
117.15139000000001
 30
0.0
 11
163.86659
 21
117.75139
 31
0.0
  0
LINE
  8
2
  6
CONTINUOUS
 62
               1
  5
24A
 10
163.96659
 20
117.15139000000001
 30
0.0
 11
164.06658999999999
 21
117.75139
 31
0.0
  0
LINE
  8
2
  6
CONTINUOUS
 62
               1
  5
24B
 10
163.86659
 20
117.75139
 30
0.0
 11
164.06658999999999
 21
117.75139
 31
0.0
  0
LINE
  8
2
  6
CONTINUOUS
 62
               1
  5
24C
 10
163.96659
 20
117.15139000000001
 30
0.0
 11
163.96659
 21
119.85138999999999
 31
0.0
  0
LINE
  8
2
  6
CONTINUOUS
 62
               1
  5
24D
 10
163.96659
 20
119.85138999999999
 30
0.0
 11
163.96659
 21
123.90353
 31
0.0
  0
TEXT
  8
2
  6
CONTINUOUS
 62
               1
  5
24E
 10
163.44764000000001
 20
120.85353000000001
 30
0.0
 40
0.5
  1
%%c2,7
 50
90.0
 41
0.75
  0
TEXT
  8
2
  6
CONTINUOUS
 62
               1
  5
24F
 10
163.10389000000001
 20
122.47853000000001
 30
0.0
 40
0.375
  1

 50
90.0
 41
0.75
  0
TEXT
  8
2
  6
CONTINUOUS
 62
               1
  5
250
 10
163.66639000000001
 20
122.47853000000001
 30
0.0
 40
0.375
  1
-0,1
 50
90.0
 41
0.75
  0
ENDBLK
  8
0
  5
251
  0
BLOCK
  8
0
  5
252
  2
*D8
 70
              65
 10
0.0
 20
0.0
 30
0.0
  3
*D8
  0
LINE
  8
2
  6
CONTINUOUS
 62
               1
  5
253
 10
160.24206000000001
 20
116.70139
 30
0.0
 11
166.66815
 21
116.70139
 31
0.0
  0
LINE
  8
2
  6
CONTINUOUS
 62
               1
  5
254
 10
156.34206
 20
120.30139
 30
0.0
 11
163.54339999999999
 21
120.30139
 31
0.0
  0
LINE
  8
2
  6
CONTINUOUS
 62
               1
  5
255
 10
164.31832
 20
120.30139
 30
0.0
 11
166.66815
 21
120.30139
 31
0.0
  0
LINE
  8
2
  6
CONTINUOUS
 62
               1
  5
256
 10
166.06815
 20
116.70139
 30
0.0
 11
166.16815
 21
117.30139
 31
0.0
  0
LINE
  8
2
  6
CONTINUOUS
 62
               1
  5
257
 10
166.06815
 20
116.70139
 30
0.0
 11
165.96815000000001
 21
117.30139
 31
0.0
  0
LINE
  8
2
  6
CONTINUOUS
 62
               1
  5
258
 10
166.16815
 20
117.30139
 30
0.0
 11
165.96815000000001
 21
117.30139
 31
0.0
  0
LINE
  8
2
  6
CONTINUOUS
 62
               1
  5
259
 10
166.06815
 20
120.30139
 30
0.0
 11
166.16815
 21
119.70139
 31
0.0
  0
LINE
  8
2
  6
CONTINUOUS
 62
               1
  5
25A
 10
166.06815
 20
120.30139
 30
0.0
 11
165.96815000000001
 21
119.70139
 31
0.0
  0
LINE
  8
2
  6
CONTINUOUS
 62
               1
  5
25B
 10
166.16815
 20
119.70139
 30
0.0
 11
165.96815000000001
 21
119.70139
 31
0.0
  0
LINE
  8
2
  6
CONTINUOUS
 62
               1
  5
25C
 10
166.06815
 20
120.30139
 30
0.0
 11
166.06815
 21
116.70139
 31
0.0
  0
LINE
  8
2
  6
CONTINUOUS
 62
               1
  5
25D
 10
166.06815
 20
120.30139
 30
0.0
 11
166.06815
 21
124.40568
 31
0.0
  0
TEXT
  8
2
  6
CONTINUOUS
 62
               1
  5
25E
 10
165.76795000000001
 20
120.69943000000001
 30
0.0
 40
0.5
  1
%%c3,63
 50
90.0
 41
0.75
  0
TEXT
  8
2
  6
CONTINUOUS
 62
               1
  5
25F
 10
165.70545000000001
 20
122.69943000000001
 30
0.0
 40
0.375
  1
%%p0,05
 50
90.0
 41
0.75
  0
ENDBLK
  8
0
  5
260
  0
BLOCK
  8
0
  5
261
  2
*D9
 70
              65
 10
0.0
 20
0.0
 30
0.0
  3
*D9
  0
LINE
  8
2
  6
CONTINUOUS
 62
               1
  5
262
 10
156.34206
 20
120.30139
 30
0.0
 11
156.34206
 21
125.3015
 31
0.0
  0
LINE
  8
2
  6
CONTINUOUS
 62
               1
  5
263
 10
160.24206000000001
 20
118.50139
 30
0.0
 11
160.24206000000001
 21
125.3015
 31
0.0
  0
LINE
  8
2
  6
CONTINUOUS
 62
               1
  5
264
 10
156.34206
 20
124.7015
 30
0.0
 11
156.94206
 21
124.6015
 31
0.0
  0
LINE
  8
2
  6
CONTINUOUS
 62
               1
  5
265
 10
156.34206
 20
124.7015
 30
0.0
 11
156.94206
 21
124.8015
 31
0.0
  0
LINE
  8
2
  6
CONTINUOUS
 62
               1
  5
266
 10
156.94206
 20
124.6015
 30
0.0
 11
156.94206
 21
124.8015
 31
0.0
  0
LINE
  8
2
  6
CONTINUOUS
 62
               1
  5
267
 10
160.24206000000001
 20
124.7015
 30
0.0
 11
159.64205999999999
 21
124.6015
 31
0.0
  0
LINE
  8
2
  6
CONTINUOUS
 62
               1
  5
268
 10
160.24206000000001
 20
124.7015
 30
0.0
 11
159.64205999999999
 21
124.8015
 31
0.0
  0
LINE
  8
2
  6
CONTINUOUS
 62
               1
  5
269
 10
159.64205999999999
 20
124.6015
 30
0.0
 11
159.64205999999999
 21
124.8015
 31
0.0
  0
LINE
  8
2
  6
CONTINUOUS
 62
               1
  5
26A
 10
156.34206
 20
124.7015
 30
0.0
 11
158.16195999999999
 21
124.7015
 31
0.0
  0
LINE
  8
2
  6
CONTINUOUS
 62
               1
  5
26B
 10
160.24206000000001
 20
124.7015
 30
0.0
 11
158.16195999999999
 21
124.7015
 31
0.0
  0
TEXT
  8
2
  6
CONTINUOUS
 62
               1
  5
26C
 10
156.97445999999999
 20
125.0017
 30
0.0
 40
0.5
  1
3,9
 41
0.75
  0
TEXT
  8
2
  6
CONTINUOUS
 62
               1
  5
26D
 10
158.22445999999999
 20
125.0642
 30
0.0
 40
0.375
  1
%%p0,2
 41
0.75
  0
ENDBLK
  8
0
  5
26E
  0
BLOCK
  8
0
  5
26F
  2
*D10
 70
              65
 10
0.0
 20
0.0
 30
0.0
  3
*D10
  0
LINE
  8
2
  6
CONTINUOUS
 62
               7
  5
270
 10
152.44206
 20
117.15139000000001
 30
0.0
 11
152.44206
 21
111.56431000000001
 31
0.0
  0
LINE
  8
2
  6
CONTINUOUS
 62
               7
  5
271
 10
160.24206000000001
 20
116.70139
 30
0.0
 11
160.24206000000001
 21
111.56431000000001
 31
0.0
  0
LINE
  8
2
  6
CONTINUOUS
 62
               7
  5
272
 10
152.44206
 20
112.16431
 30
0.0
 11
153.04205999999999
 21
112.06431000000001
 31
0.0
  0
LINE
  8
2
  6
CONTINUOUS
 62
               7
  5
273
 10
152.44206
 20
112.16431
 30
0.0
 11
153.04205999999999
 21
112.26430999999999
 31
0.0
  0
LINE
  8
2
  6
CONTINUOUS
 62
               7
  5
274
 10
153.04205999999999
 20
112.06431000000001
 30
0.0
 11
153.04205999999999
 21
112.26430999999999
 31
0.0
  0
LINE
  8
2
  6
CONTINUOUS
 62
               7
  5
275
 10
160.24206000000001
 20
112.16431
 30
0.0
 11
159.64205999999999
 21
112.06431000000001
 31
0.0
  0
LINE
  8
2
  6
CONTINUOUS
 62
               7
  5
276
 10
160.24206000000001
 20
112.16431
 30
0.0
 11
159.64205999999999
 21
112.26430999999999
 31
0.0
  0
LINE
  8
2
  6
CONTINUOUS
 62
               7
  5
277
 10
159.64205999999999
 20
112.06431000000001
 30
0.0
 11
159.64205999999999
 21
112.26430999999999
 31
0.0
  0
LINE
  8
2
  6
CONTINUOUS
 62
               7
  5
278
 10
152.44206
 20
112.16431
 30
0.0
 11
156.34206
 21
112.16431
 31
0.0
  0
LINE
  8
2
  6
CONTINUOUS
 62
               7
  5
279
 10
160.24206000000001
 20
112.16431
 30
0.0
 11
156.34206
 21
112.16431
 31
0.0
  0
TEXT
  8
2
  6
CONTINUOUS
 62
               7
  5
27A
 10
155.15456
 20
112.68326
 30
0.0
 40
0.5
  1
7,8
 41
0.75
  0
TEXT
  8
2
  6
CONTINUOUS
 62
               7
  5
27B
 10
156.40456
 20
113.02701
 30
0.0
 40
0.375
  1

 41
0.75
  0
TEXT
  8
2
  6
CONTINUOUS
 62
               7
  5
27C
 10
156.40456
 20
112.46451
 30
0.0
 40
0.375
  1
-0,4
 41
0.75
  0
ENDBLK
  8
0
  5
27D
  0
BLOCK
  8
0
  5
27E
  2
*D11
 70
              65
 10
0.0
 20
0.0
 30
0.0
  3
*D11
  0
LINE
  8
2
  6
CONTINUOUS
 62
               1
  5
27F
 10
160.24206000000001
 20
116.70139
 30
0.0
 11
160.24206000000001
 21
106.82702
 31
0.0
  0
LINE
  8
2
  6
CONTINUOUS
 62
               1
  5
280
 10
137.54174
 20
117.5585
 30
0.0
 11
137.54174
 21
106.82702
 31
0.0
  0
LINE
  8
2
  6
CONTINUOUS
 62
               1
  5
281
 10
160.24206000000001
 20
107.42702
 30
0.0
 11
159.64205999999999
 21
107.52701999999999
 31
0.0
  0
LINE
  8
2
  6
CONTINUOUS
 62
               1
  5
282
 10
160.24206000000001
 20
107.42702
 30
0.0
 11
159.64205999999999
 21
107.32702
 31
0.0
  0
LINE
  8
2
  6
CONTINUOUS
 62
               1
  5
283
 10
159.64205999999999
 20
107.52701999999999
 30
0.0
 11
159.64205999999999
 21
107.32702
 31
0.0
  0
LINE
  8
2
  6
CONTINUOUS
 62
               1
  5
284
 10
137.54174
 20
107.42702
 30
0.0
 11
138.14174
 21
107.52701999999999
 31
0.0
  0
LINE
  8
2
  6
CONTINUOUS
 62
               1
  5
285
 10
137.54174
 20
107.42702
 30
0.0
 11
138.14174
 21
107.32702
 31
0.0
  0
LINE
  8
2
  6
CONTINUOUS
 62
               1
  5
286
 10
138.14174
 20
107.52701999999999
 30
0.0
 11
138.14174
 21
107.32702
 31
0.0
  0
LINE
  8
2
  6
CONTINUOUS
 62
               1
  5
287
 10
160.24206000000001
 20
107.42702
 30
0.0
 11
148.89189999999999
 21
107.42702
 31
0.0
  0
LINE
  8
2
  6
CONTINUOUS
 62
               1
  5
288
 10
137.54174
 20
107.42702
 30
0.0
 11
148.89189999999999
 21
107.42702
 31
0.0
  0
TEXT
  8
2
  6
CONTINUOUS
 62
               1
  5
289
 10
147.39189999999999
 20
107.72722
 30
0.0
 40
0.5
  1
22,6
 50
360.0
 41
0.75
  0
TEXT
  8
2
  6
CONTINUOUS
 62
               1
  5
28A
 10
148.89189999999999
 20
107.72722
 30
0.0
 40
0.5
  1
 max
 50
360.0
 41
0.75
  0
ENDBLK
  8
0
  5
28B
  0
BLOCK
  8
0
  5
28C
  2
*D12
 70
              65
 10
0.0
 20
0.0
 30
0.0
  3
*D12
  0
LINE
  8
2
  6
CONTINUOUS
 62
               1
  5
28D
 10
148.94174000000001
 20
115.75888999999999
 30
0.0
 11
148.94174000000001
 21
109.59169
 31
0.0
  0
LINE
  8
2
  6
CONTINUOUS
 62
               1
  5
28E
 10
137.54174
 20
117.5585
 30
0.0
 11
137.54174
 21
109.59169
 31
0.0
  0
LINE
  8
2
  6
CONTINUOUS
 62
               1
  5
28F
 10
148.94174000000001
 20
110.19168999999999
 30
0.0
 11
148.34173999999999
 21
110.29169
 31
0.0
  0
LINE
  8
2
  6
CONTINUOUS
 62
               1
  5
290
 10
148.94174000000001
 20
110.19168999999999
 30
0.0
 11
148.34173999999999
 21
110.09169
 31
0.0
  0
LINE
  8
2
  6
CONTINUOUS
 62
               1
  5
291
 10
148.34173999999999
 20
110.29169
 30
0.0
 11
148.34173999999999
 21
110.09169
 31
0.0
  0
LINE
  8
2
  6
CONTINUOUS
 62
               1
  5
292
 10
137.54174
 20
110.19168999999999
 30
0.0
 11
138.14174
 21
110.29169
 31
0.0
  0
LINE
  8
2
  6
CONTINUOUS
 62
               1
  5
293
 10
137.54174
 20
110.19168999999999
 30
0.0
 11
138.14174
 21
110.09169
 31
0.0
  0
LINE
  8
2
  6
CONTINUOUS
 62
               1
  5
294
 10
138.14174
 20
110.29169
 30
0.0
 11
138.14174
 21
110.09169
 31
0.0
  0
LINE
  8
2
  6
CONTINUOUS
 62
               1
  5
295
 10
148.94174000000001
 20
110.19168999999999
 30
0.0
 11
143.24173999999999
 21
110.19168999999999
 31
0.0
  0
LINE
  8
2
  6
CONTINUOUS
 62
               1
  5
296
 10
137.54174
 20
110.19168999999999
 30
0.0
 11
143.24173999999999
 21
110.19168999999999
 31
0.0
  0
TEXT
  8
2
  6
CONTINUOUS
 62
               1
  5
297
 10
142.49173999999999
 20
110.49189
 30
0.0
 40
0.5
  1
11,4
 50
360.0
 41
0.75
  0
ENDBLK
  8
0
  5
298
  0
BLOCK
  8
0
  5
299
  2
*D13
 70
              65
 10
0.0
 20
0.0
 30
0.0
  3
*D13
  0
LINE
  8
2
  6
CONTINUOUS
 62
               1
  5
29A
 10
137.54174
 20
117.5585
 30
0.0
 11
137.54174
 21
113.30484
 31
0.0
  0
LINE
  8
2
  6
CONTINUOUS
 62
               1
  5
29B
 10
138.59594999999999
 20
116.71138999999999
 30
0.0
 11
138.59594999999999
 21
113.30484
 31
0.0
  0
LINE
  8
2
  6
CONTINUOUS
 62
               1
  5
29C
 10
137.54174
 20
113.90483999999999
 30
0.0
 11
136.94174000000001
 21
114.00484
 31
0.0
  0
LINE
  8
2
  6
CONTINUOUS
 62
               1
  5
29D
 10
137.54174
 20
113.90483999999999
 30
0.0
 11
136.94174000000001
 21
113.80484
 31
0.0
  0
LINE
  8
2
  6
CONTINUOUS
 62
               1
  5
29E
 10
136.94174000000001
 20
114.00484
 30
0.0
 11
136.94174000000001
 21
113.80484
 31
0.0
  0
LINE
  8
2
  6
CONTINUOUS
 62
               1
  5
29F
 10
138.59594999999999
 20
113.90483999999999
 30
0.0
 11
139.19595000000001
 21
114.00484
 31
0.0
  0
LINE
  8
2
  6
CONTINUOUS
 62
               1
  5
2A0
 10
138.59594999999999
 20
113.90483999999999
 30
0.0
 11
139.19595000000001
 21
113.80484
 31
0.0
  0
LINE
  8
2
  6
CONTINUOUS
 62
               1
  5
2A1
 10
139.19595000000001
 20
114.00484
 30
0.0
 11
139.19595000000001
 21
113.80484
 31
0.0
  0
LINE
  8
2
  6
CONTINUOUS
 62
               1
  5
2A2
 10
136.34173999999999
 20
113.90483999999999
 30
0.0
 11
138.59594999999999
 21
113.90483999999999
 31
0.0
  0
LINE
  8
2
  6
CONTINUOUS
 62
               1
  5
2A3
 10
138.59594999999999
 20
113.90483999999999
 30
0.0
 11
141.02061
 21
113.90483999999999
 31
0.0
  0
TEXT
  8
2
  6
CONTINUOUS
 62
               1
  5
2A4
 10
139.59560999999999
 20
114.20504
 30
0.0
 40
0.5
  1
1,2
 41
0.75
  0
ENDBLK
  8
0
  5
2A5
  0
BLOCK
  8
0
  5
2A6
  2
*D14
 70
              65
 10
0.0
 20
0.0
 30
0.0
  3
*D14
  0
LINE
  8
2
  6
CONTINUOUS
 62
               1
  5
2A7
 10
137.54174
 20
117.5585
 30
0.0
 11
137.54174
 21
112.05685
 31
0.0
  0
LINE
  8
2
  6
CONTINUOUS
 62
               1
  5
2A8
 10
143.41674
 20
116.71138999999999
 30
0.0
 11
143.41674
 21
112.05685
 31
0.0
  0
LINE
  8
2
  6
CONTINUOUS
 62
               1
  5
2A9
 10
137.54174
 20
112.65685000000001
 30
0.0
 11
138.14174
 21
112.55685
 31
0.0
  0
LINE
  8
2
  6
CONTINUOUS
 62
               1
  5
2AA
 10
137.54174
 20
112.65685000000001
 30
0.0
 11
138.14174
 21
112.75685
 31
0.0
  0
LINE
  8
2
  6
CONTINUOUS
 62
               1
  5
2AB
 10
138.14174
 20
112.55685
 30
0.0
 11
138.14174
 21
112.75685
 31
0.0
  0
LINE
  8
2
  6
CONTINUOUS
 62
               1
  5
2AC
 10
143.41674
 20
112.65685000000001
 30
0.0
 11
142.81674000000001
 21
112.55685
 31
0.0
  0
LINE
  8
2
  6
CONTINUOUS
 62
               1
  5
2AD
 10
143.41674
 20
112.65685000000001
 30
0.0
 11
142.81674000000001
 21
112.75685
 31
0.0
  0
LINE
  8
2
  6
CONTINUOUS
 62
               1
  5
2AE
 10
142.81674000000001
 20
112.55685
 30
0.0
 11
142.81674000000001
 21
112.75685
 31
0.0
  0
LINE
  8
2
  6
CONTINUOUS
 62
               1
  5
2AF
 10
137.54174
 20
112.65685000000001
 30
0.0
 11
140.47924
 21
112.65685000000001
 31
0.0
  0
LINE
  8
2
  6
CONTINUOUS
 62
               1
  5
2B0
 10
143.41674
 20
112.65685000000001
 30
0.0
 11
140.47924
 21
112.65685000000001
 31
0.0
  0
TEXT
  8
2
  6
CONTINUOUS
 62
               1
  5
2B1
 10
139.91674
 20
112.95705
 30
0.0
 40
0.5
  1
5,9
 41
0.75
  0
ENDBLK
  8
0
  5
2B2
  0
BLOCK
  8
0
  5
2B3
  2
*D15
 70
              65
 10
0.0
 20
0.0
 30
0.0
  3
*D15
  0
LINE
  8
2
  6
CONTINUOUS
 62
               1
  5
2B4
 10
138.59594999999999
 20
120.29139000000001
 30
0.0
 11
141.60961
 21
120.29139000000001
 31
0.0
  0
LINE
  8
2
  6
CONTINUOUS
 62
               1
  5
2B5
 10
141.00961000000001
 20
120.29139000000001
 30
0.0
 11
140.90960999999999
 21
120.89139
 31
0.0
  0
LINE
  8
2
  6
CONTINUOUS
 62
               1
  5
2B6
 10
141.00961000000001
 20
120.29139000000001
 30
0.0
 11
141.10961
 21
120.89139
 31
0.0
  0
LINE
  8
2
  6
CONTINUOUS
 62
               1
  5
2B7
 10
140.90960999999999
 20
120.89139
 30
0.0
 11
141.10961
 21
120.89139
 31
0.0
  0
LINE
  8
2
  6
CONTINUOUS
 62
               1
  5
2B8
 10
141.00961000000001
 20
120.29139000000001
 30
0.0
 11
141.00961000000001
 21
125.7336
 31
0.0
  0
TEXT
  8
2
  6
CONTINUOUS
 62
               1
  5
2B9
 10
140.49065999999999
 20
122.40235
 30
0.0
 40
0.5
  1
%%c
 50
90.0
 41
0.75
  0
TEXT
  8
2
  6
CONTINUOUS
 62
               1
  5
2BA
 10
140.49065999999999
 20
122.77735
 30
0.0
 40
0.5
  1
3,6
 50
90.0
 41
0.75
  0
TEXT
  8
2
  6
CONTINUOUS
 62
               1
  5
2BB
 10
140.14690999999999
 20
124.02735
 30
0.0
 40
0.375
  1

 50
90.0
 41
0.75
  0
TEXT
  8
2
  6
CONTINUOUS
 62
               1
  5
2BC
 10
140.70940999999999
 20
124.02735
 30
0.0
 40
0.375
  1
-0,03
 50
90.0
 41
0.75
  0
ENDBLK
  8
0
  5
2BD
  0
ENDSEC
  0
SECTION
  2
ENTITIES
  0
VIEWPORT
  8
0
  6
CONTINUOUS
 62
               3
  5
1FA
 67
               1
 68
               1
 10
148.5
 20
105.0
 30
0.0
 40
210.0
 41
210.0
 69
               1
1001
ACAD
1000
MVIEW
1002
{
1070
              16
1010
0.0
1020
0.0
1030
0.0
1010
0.0
1020
0.0
1030
1.0
1040
0.0
1040
210.0
1040
59.399999999999999
1040
105.0
1040
50.0
1040
0.0
1040
0.0
1070
               0
1070
             100
1070
               1
1070
               0
1070
               0
1070
               0
1070
               0
1070
               0
1040
0.0
1040
0.0
1040
0.0
1040
0.5
1040
0.5
1040
0.5
1040
0.5
1070
               0
1002
{
1002
}
1002
}
  0
VIEWPORT
  8
0
  6
CONTINUOUS
 62
               3
  5
1FB
 67
               1
 68
               2
 10
148.5
 20
105.0
 30
0.0
 40
297.0
 41
210.0
 69
               2
1001
ACAD
1000
MVIEW
1002
{
1070
              16
1010
0.0
1020
0.0
1030
0.0
1010
0.0
1020
0.0
1030
1.0
1040
0.0
1040
210.0
1040
148.5
1040
105.0
1040
50.0
1040
0.0
1040
0.0
1070
               0
1070
             100
1070
               1
1070
               0
1070
               0
1070
               0
1070
               0
1070
               0
1040
0.0
1040
0.0
1040
0.0
1040
0.5
1040
0.5
1040
0.5
1040
0.5
1070
               0
1002
{
1003
2
1002
}
1002
}
  0
VIEWPORT
  8
0
  6
CONTINUOUS
 62
               3
  5
1FC
 67
               1
 68
               3
 10
150.67508000000001
 20
128.94927000000001
 30
0.0
 40
282.78768000000002
 41
125.64091999999999
 69
               3
1001
ACAD
1000
MVIEW
1002
{
1070
              16
1010
0.0
1020
0.0
1030
0.0
1010
0.0
1020
0.0
1030
1.0
1040
0.0
1040
25.128184999999998
1040
146.40440000000001
1040
117.44831000000001
1040
50.0
1040
0.0
1040
0.0
1070
               0
1070
             100
1070
               1
1070
               0
1070
               0
1070
               0
1070
               0
1070
               0
1040
0.0
1040
0.0
1040
0.0
1040
0.5
1040
0.5
1040
0.5
1040
0.5
1070
               0
1002
{
1003
1
1002
}
1002
}
  0
LINE
  8
1
  6
CONTINUOUS
 62
               2
  5
3E
 10
292.57501999999999
 20
40.287511000000002
 30
0.0
 11
292.57501999999999
 21
5.2875110000000003
 31
0.0
  0
LINE
  8
1
  6
CONTINUOUS
 62
               2
  5
3F
 10
107.57501999999999
 20
40.287511000000002
 30
0.0
 11
107.57501999999999
 21
5.2875110000000003
 31
0.0
  0
LINE
  8
1
  6
CONTINUOUS
 62
               2
  5
40
 10
107.57501999999999
 20
5.2875110000000003
 30
0.0
 11
292.57501999999999
 21
5.2875110000000003
 31
0.0
  0
POINT
  8
1
  6
CONTINUOUS
 62
               1
  5
41
 10
246.15619000000001
 20
31.784407000000002
 30
0.0
  0
POINT
  8
1
  6
CONTINUOUS
 62
               1
  5
42
 10
246.15619000000001
 20
25.468630999999998
 30
0.0
  0
LINE
  8
1
  6
CONTINUOUS
 62
               3
  5
43
 10
122.57501999999999
 20
40.287511000000002
 30
0.0
 11
122.57501999999999
 21
5.2875110000000003
 31
0.0
  0
LINE
  8
1
  6
CONTINUOUS
 62
               3
  5
44
 10
137.57501999999999
 20
40.287511000000002
 30
0.0
 11
137.57501999999999
 21
5.2875110000000003
 31
0.0
  0
LINE
  8
1
  6
CONTINUOUS
 62
               2
  5
45
 10
152.57501999999999
 20
40.287511000000002
 30
0.0
 11
152.57501999999999
 21
5.2875110000000003
 31
0.0
  0
LINE
  8
1
  6
CONTINUOUS
 62
               3
  5
46
 10
162.57501999999999
 20
40.287511000000002
 30
0.0
 11
162.57501999999999
 21
20.287510999999999
 31
0.0
  0
LINE
  8
1
  6
CONTINUOUS
 62
               3
  5
47
 10
212.57501999999999
 20
40.287511000000002
 30
0.0
 11
212.57501999999999
 21
20.287510999999999
 31
0.0
  0
LINE
  8
1
  6
CONTINUOUS
 62
               2
  5
48
 10
212.57501999999999
 20
10.287511
 30
0.0
 11
278.53944999999999
 21
10.287511
 31
0.0
  0
LINE
  8
1
  6
CONTINUOUS
 62
               3
  5
49
 10
177.57501999999999
 20
40.287511000000002
 30
0.0
 11
177.57501999999999
 21
20.287510999999999
 31
0.0
  0
LINE
  8
1
  6
CONTINUOUS
 62
               3
  5
4A
 10
192.57501999999999
 20
40.287511000000002
 30
0.0
 11
192.57501999999999
 21
20.287510999999999
 31
0.0
  0
LINE
  8
1
  6
CONTINUOUS
 62
               2
  5
4B
 10
195.35844
 20
36.395131999999997
 30
0.0
 11
195.35844
 21
32.895131999999997
 31
0.0
  0
LINE
  8
1
  6
CONTINUOUS
 62
               2
  5
4C
 10
202.35844
 20
38.145131999999997
 30
0.0
 11
202.35844
 21
31.145132
 31
0.0
  0
LINE
  8
1
  6
CONTINUOUS
 62
               2
  5
4D
 10
202.35844
 20
38.145131999999997
 30
0.0
 11
195.35844
 21
36.395131999999997
 31
0.0
  0
LINE
  8
1
  6
CONTINUOUS
 62
               2
  5
4E
 10
202.35844
 20
31.145132
 30
0.0
 11
195.35844
 21
32.895131999999997
 31
0.0
  0
CIRCLE
  8
1
  6
CONTINUOUS
 62
               2
  5
4F
 10
207.00844000000001
 20
34.645131999999997
 30
0.0
 40
3.5
  0
CIRCLE
  8
1
  6
CONTINUOUS
 62
               2
  5
50
 10
207.00844000000001
 20
34.645131999999997
 30
0.0
 40
1.75
  0
LINE
  8
1
  6
CENTERLINE
 62
               3
  5
51
 10
193.93343999999999
 20
34.645131999999997
 30
0.0
 11
211.93343999999999
 21
34.645131999999997
 31
0.0
  0
LINE
  8
1
  6
CENTERLINE
 62
               3
  5
52
 10
207.00844000000001
 20
39.145131999999997
 30
0.0
 11
207.00844000000001
 21
30.145132
 31
0.0
  0
TEXT
  8
1
  6
CONTINUOUS
 62
               1
  5
53
 10
117.07501999999999
 20
8.7875110000000003
 30
0.0
 40
2.0
  1
Mod.
 41
0.5
 72
               1
 11
115.07501999999999
 21
7.7875110000000003
 31
0.0
 73
               2
  0
TEXT
  8
1
  6
CONTINUOUS
 62
               1
  5
54
 10
132.07501999999999
 20
8.7875110000000003
 30
0.0
 40
2.0
  1
Dat.
 41
0.5
 72
               1
 11
130.07501999999999
 21
7.7875110000000003
 31
0.0
 73
               2
  0
TEXT
  8
1
  6
CONTINUOUS
 62
               1
  5
55
 10
147.07501999999999
 20
8.7875110000000003
 30
0.0
 40
2.0
  1
Name
 41
0.5
 72
               1
 11
145.07501999999999
 21
7.7875110000000003
 31
0.0
 73
               2
  0
TEXT
  8
1
  6
CONTINUOUS
 62
               1
  5
56
 10
154.05193
 20
33.749991000000001
 30
0.0
 40
2.0
  1
Detail.
 41
0.5
 11
154.05193
 21
32.749991000000001
 31
0.0
 73
               2
  0
TEXT
  8
1
  6
CONTINUOUS
 62
               1
  5
57
 10
154.05193
 20
28.749991000000001
 30
0.0
 40
2.0
  1
Insp.
 41
0.5
 11
154.05193
 21
27.749991000000001
 31
0.0
 73
               2
  0
TEXT
  8
1
  6
CONTINUOUS
 62
               1
  5
58
 10
154.05193
 20
23.749991000000001
 30
0.0
 40
2.0
  1
Stand.
 41
0.5
 11
154.05193
 21
22.749991000000001
 31
0.0
 73
               2
  0
TEXT
  8
1
  6
CONTINUOUS
 62
               1
  5
59
 10
187.07501999999999
 20
38.787511000000002
 30
0.0
 40
2.0
  1
Name
 41
0.5
 72
               1
 11
185.07501999999999
 21
37.787511000000002
 31
0.0
 73
               2
  0
TEXT
  8
1
  6
CONTINUOUS
 62
               1
  5
5A
 10
172.07501999999999
 20
38.787511000000002
 30
0.0
 40
2.0
  1
Dat.
 41
0.5
 72
               1
 11
170.07501999999999
 21
37.787511000000002
 31
0.0
 73
               2
  0
TEXT
  8
1
  6
CONTINUOUS
 62
               1
  5
5B
 10
214.05193
 20
8.7499909999999996
 30
0.0
 40
2.0
  1
Sub.
 41
0.5
 11
214.05193
 21
7.7499909999999996
 31
0.0
 73
               2
  0
LINE
  8
1
  6
CONTINUOUS
 62
               2
  5
5C
 10
212.57501999999999
 20
20.287510999999999
 30
0.0
 11
212.57501999999999
 21
10.287511
 31
0.0
  0
LINE
  8
1
  6
CONTINUOUS
 62
               3
  5
5D
 10
212.57501999999999
 20
10.287511
 30
0.0
 11
212.57501999999999
 21
5.2875110000000003
 31
0.0
  0
LINE
  8
1
  6
CONTINUOUS
 62
               2
  5
5E
 10
212.57501999999999
 20
20.287510999999999
 30
0.0
 11
278.53944999999999
 21
20.287510999999999
 31
0.0
  0
POINT
  8
1
  6
CONTINUOUS
 62
               1
  5
5F
 10
292.57501999999999
 20
5.2875110000000003
 30
0.0
  0
POINT
  8
1
  6
CONTINUOUS
 62
               1
  5
60
 10
246.15619000000001
 20
15.287511
 30
0.0
  0
POINT
  8
1
  6
CONTINUOUS
 62
               1
  5
61
 10
202.57501999999999
 20
27.787510999999999
 30
0.0
  0
POINT
  8
1
  6
CONTINUOUS
 62
               1
  5
62
 10
185.07501999999999
 20
22.787510999999999
 30
0.0
  0
POINT
  8
1
  6
CONTINUOUS
 62
               1
  5
63
 10
170.07501999999999
 20
22.787510999999999
 30
0.0
  0
POINT
  8
1
  6
CONTINUOUS
 62
               1
  5
64
 10
185.07501999999999
 20
27.787510999999999
 30
0.0
  0
POINT
  8
1
  6
CONTINUOUS
 62
               1
  5
65
 10
185.07501999999999
 20
32.787511000000002
 30
0.0
  0
POINT
  8
1
  6
CONTINUOUS
 62
               1
  5
66
 10
170.07501999999999
 20
32.787511000000002
 30
0.0
  0
POINT
  8
1
  6
CONTINUOUS
 62
               1
  5
67
 10
170.07501999999999
 20
27.787510999999999
 30
0.0
  0
POINT
  8
1
  6
CONTINUOUS
 62
               1
  5
68
 10
145.07501999999999
 20
12.787511
 30
0.0
  0
POINT
  8
1
  6
CONTINUOUS
 62
               1
  5
69
 10
145.07501999999999
 20
17.787510999999999
 30
0.0
  0
POINT
  8
1
  6
CONTINUOUS
 62
               1
  5
6A
 10
145.07501999999999
 20
22.787510999999999
 30
0.0
  0
POINT
  8
1
  6
CONTINUOUS
 62
               1
  5
6B
 10
145.07501999999999
 20
27.787510999999999
 30
0.0
  0
POINT
  8
1
  6
CONTINUOUS
 62
               1
  5
6C
 10
145.07501999999999
 20
32.787511000000002
 30
0.0
  0
POINT
  8
1
  6
CONTINUOUS
 62
               1
  5
6D
 10
145.07501999999999
 20
37.787511000000002
 30
0.0
  0
POINT
  8
1
  6
CONTINUOUS
 62
               1
  5
6E
 10
130.07501999999999
 20
12.787511
 30
0.0
  0
POINT
  8
1
  6
CONTINUOUS
 62
               1
  5
6F
 10
130.07501999999999
 20
17.787510999999999
 30
0.0
  0
POINT
  8
1
  6
CONTINUOUS
 62
               1
  5
70
 10
130.07501999999999
 20
22.787510999999999
 30
0.0
  0
POINT
  8
1
  6
CONTINUOUS
 62
               1
  5
71
 10
130.07501999999999
 20
27.787510999999999
 30
0.0
  0
POINT
  8
1
  6
CONTINUOUS
 62
               1
  5
72
 10
130.07501999999999
 20
32.787511000000002
 30
0.0
  0
POINT
  8
1
  6
CONTINUOUS
 62
               1
  5
73
 10
130.07501999999999
 20
37.787511000000002
 30
0.0
  0
POINT
  8
1
  6
CONTINUOUS
 62
               1
  5
74
 10
115.07501999999999
 20
37.787511000000002
 30
0.0
  0
POINT
  8
1
  6
CONTINUOUS
 62
               1
  5
75
 10
115.07501999999999
 20
32.787511000000002
 30
0.0
  0
POINT
  8
1
  6
CONTINUOUS
 62
               1
  5
76
 10
115.07501999999999
 20
27.787510999999999
 30
0.0
  0
POINT
  8
1
  6
CONTINUOUS
 62
               1
  5
77
 10
115.07501999999999
 20
22.787510999999999
 30
0.0
  0
POINT
  8
1
  6
CONTINUOUS
 62
               1
  5
78
 10
115.07501999999999
 20
17.787510999999999
 30
0.0
  0
POINT
  8
1
  6
CONTINUOUS
 62
               1
  5
79
 10
115.07501999999999
 20
12.787511
 30
0.0
  0
POINT
  8
1
  6
CONTINUOUS
 62
               1
  5
7A
 10
246.15619000000001
 20
7.7875110000000003
 30
0.0
  0
POINT
  8
1
  6
CONTINUOUS
 62
               1
  5
7B
 10
285.55703
 20
25.468630999999998
 30
0.0
  0
LINE
  8
1
  6
CONTINUOUS
 62
               1
  5
7C
 10
200.35696999999999
 20
13.215945
 30
0.0
 11
200.35696999999999
 21
15.415945000000001
 31
0.0
  0
LINE
  8
1
  6
CONTINUOUS
 62
               1
  5
7D
 10
209.55697000000001
 20
16.332594
 30
0.0
 11
209.55697000000001
 21
17.032594
 31
0.0
  0
LINE
  8
1
  6
CONTINUOUS
 62
               1
  5
7E
 10
209.55697000000001
 20
17.032594
 30
0.0
 11
209.80697000000001
 21
17.032594
 31
0.0
  0
LINE
  8
1
  6
CONTINUOUS
 62
               1
  5
7F
 10
209.65697
 20
16.632594000000001
 30
0.0
 11
209.74517
 21
16.632594000000001
 31
0.0
  0
LINE
  8
1
  6
CONTINUOUS
 62
               1
  5
80
 10
209.85417000000001
 20
16.638244
 30
0.0
 11
210.00697
 21
16.332594
 31
0.0
  0
ARC
  8
1
  6
CONTINUOUS
 62
               1
  5
81
 10
190.39757
 20
11.932594999999999
 30
0.0
 40
9.9999824000000004
 50
354.83638000000008
 51
365.16361999999998
  0
ARC
  8
1
  6
CONTINUOUS
 62
               1
  5
82
 10
210.76636999999999
 20
11.932594999999999
 30
0.0
 40
9.9999754999999997
 50
181.43254999999999
 51
185.16362000000001
  0
ARC
  8
1
  6
CONTINUOUS
 62
               1
  5
83
 10
205.35696999999999
 20
7.9325945000000004
 30
0.0
 40
9.0000292999999996
 50
56.251136000000002
 51
123.74886000000001
  0
LINE
  8
1
  6
CONTINUOUS
 62
               1
  5
84
 10
200.35696999999999
 20
10.649293999999999
 30
0.0
 11
200.35696999999999
 21
8.4492945000000006
 31
0.0
  0
ARC
  8
1
  6
CONTINUOUS
 62
               1
  5
85
 10
205.35696999999999
 20
18.132594000000001
 30
0.0
 40
8.9999877000000001
 50
236.25095999999999
 51
303.74903999999998
  0
ARC
  8
1
  6
CONTINUOUS
 62
               1
  5
86
 10
205.35696999999999
 20
15.932594999999999
 30
0.0
 40
8.9999877000000001
 50
236.25095999999999
 51
303.74903999999998
  0
LINE
  8
1
  6
CONTINUOUS
 62
               1
  5
87
 10
210.35696999999999
 20
10.649293999999999
 30
0.0
 11
210.35696999999999
 21
8.4492945000000006
 31
0.0
  0
ARC
  8
1
  6
CONTINUOUS
 62
               1
  5
88
 10
200.58197000000001
 20
10.058244999999999
 30
0.0
 40
0.9999914600000001
 50
76.997009000000006
 51
103.00299
  0
ARC
  8
1
  6
CONTINUOUS
 62
               1
  5
89
 10
210.76636999999999
 20
11.932594999999999
 30
0.0
 40
9.9999824000000004
 50
174.83637999999999
 51
178.56745000000001
  0
ARC
  8
1
  6
CONTINUOUS
 62
               1
  5
8A
 10
191.14757
 20
11.932594999999999
 30
0.0
 40
9.9999824000000004
 50
354.83638000000008
 51
358.56745000000001
  0
ARC
  8
1
  6
CONTINUOUS
 62
               1
  5
8B
 10
191.14757
 20
11.932594999999999
 30
0.0
 40
9.9999754999999997
 50
1.4325471999999999
 51
5.1636161999999999
  0
ARC
  8
1
  6
CONTINUOUS
 62
               1
  5
8C
 10
200.58197000000001
 20
13.806995000000001
 30
0.0
 40
1.0000401999999999
 50
256.99765000000002
 51
283.00234999999998
  0
ARC
  8
1
  6
CONTINUOUS
 62
               1
  5
8D
 10
201.33197000000001
 20
10.058244999999999
 30
0.0
 40
0.9999914600000001
 50
76.997009000000006
 51
103.00299
  0
ARC
  8
1
  6
CONTINUOUS
 62
               1
  5
8E
 10
201.33197000000001
 20
13.806995000000001
 30
0.0
 40
1.0000401999999999
 50
256.99765000000002
 51
283.00234999999998
  0
ARC
  8
1
  6
CONTINUOUS
 62
               1
  5
8F
 10
211.51636999999999
 20
11.932594999999999
 30
0.0
 40
9.9999824000000004
 50
174.83637999999999
 51
185.16362000000001
  0
LINE
  8
1
  6
CONTINUOUS
 62
               1
  5
90
 10
200.76952
 20
12.182594999999999
 30
0.0
 11
201.14442
 21
12.182594999999999
 31
0.0
  0
LINE
  8
1
  6
CONTINUOUS
 62
               1
  5
91
 10
200.76952
 20
11.682594999999999
 30
0.0
 11
201.14442
 21
11.682594999999999
 31
0.0
  0
LINE
  8
1
  6
CONTINUOUS
 62
               1
  5
92
 10
202.33927
 20
12.832595
 30
0.0
 11
201.85696999999999
 21
11.032595000000001
 31
0.0
  0
LINE
  8
1
  6
CONTINUOUS
 62
               1
  5
93
 10
202.37756999999999
 20
11.382593999999999
 30
0.0
 11
202.83636999999999
 21
11.382593999999999
 31
0.0
  0
LINE
  8
1
  6
CONTINUOUS
 62
               1
  5
94
 10
202.60696999999999
 20
12.242243999999999
 30
0.0
 11
202.48382000000001
 21
11.782595000000001
 31
0.0
  0
LINE
  8
1
  6
CONTINUOUS
 62
               1
  5
95
 10
202.73012
 20
11.782595000000001
 30
0.0
 11
202.48382000000001
 21
11.782595000000001
 31
0.0
  0
LINE
  8
1
  6
CONTINUOUS
 62
               1
  5
96
 10
202.87467000000001
 20
12.832595
 30
0.0
 11
203.35696999999999
 21
11.032595000000001
 31
0.0
  0
ARC
  8
1
  6
CONTINUOUS
 62
               1
  5
97
 10
202.60696999999999
 20
13.796094999999999
 30
0.0
 40
0.99999777
 50
254.47251999999997
 51
285.52748000000003
  0
ARC
  8
1
  6
CONTINUOUS
 62
               1
  5
98
 10
204.36712
 20
11.178544
 30
0.0
 40
1.9999864000000001
 50
174.14417
 51
184.30554000000001
  0
LINE
  8
1
  6
CONTINUOUS
 62
               1
  5
99
 10
202.60696999999999
 20
12.242243999999999
 30
0.0
 11
202.73012
 21
11.782595000000001
 31
0.0
  0
ARC
  8
1
  6
CONTINUOUS
 62
               1
  5
9A
 10
203.88197
 20
13.806995000000001
 30
0.0
 40
1.0000401999999999
 50
256.99765000000002
 51
272.47300000000001
  0
ARC
  8
1
  6
CONTINUOUS
 62
               1
  5
9B
 10
214.11636999999999
 20
11.932594999999999
 30
0.0
 40
9.9999789000000003
 50
180.64259000000001
 51
185.16362000000001
  0
ARC
  8
1
  6
CONTINUOUS
 62
               1
  5
9C
 10
193.69757000000001
 20
11.932594999999999
 30
0.0
 40
9.9999824000000004
 50
354.83638000000008
 51
365.16361999999998
  0
LINE
  8
1
  6
CONTINUOUS
 62
               1
  5
9D
 10
204.11636999999999
 20
12.382593999999999
 30
0.0
 11
204.26636999999999
 21
12.382593999999999
 31
0.0
  0
LINE
  8
1
  6
CONTINUOUS
 62
               1
  5
9E
 10
204.11636999999999
 20
12.182594999999999
 30
0.0
 11
204.11636999999999
 21
12.382593999999999
 31
0.0
  0
LINE
  8
1
  6
CONTINUOUS
 62
               1
  5
9F
 10
204.11636999999999
 20
12.182594999999999
 30
0.0
 11
204.26636999999999
 21
12.182594999999999
 31
0.0
  0
ARC
  8
1
  6
CONTINUOUS
 62
               1
  5
A0
 10
204.26636999999999
 20
12.282595000000001
 30
0.0
 40
0.1
 50
270.0
 51
450.0
  0
LINE
  8
1
  6
CONTINUOUS
 62
               1
  5
A1
 10
203.92511999999999
 20
12.807893999999999
 30
0.0
 11
204.48757000000001
 21
12.832193999999999
 31
0.0
  0
ARC
  8
1
  6
CONTINUOUS
 62
               1
  5
A2
 10
204.50697
 20
12.382593999999999
 30
0.0
 40
0.44997327
 50
285.04460999999998
 51
452.47075000000001
  0
ARC
  8
1
  6
CONTINUOUS
 62
               1
  5
A3
 10
201.56082000000001
 20
10.250144000000001
 30
0.0
 40
2.9999855000000002
 50
15.118601
 51
31.562834999999996
  0
ARC
  8
1
  6
CONTINUOUS
 62
               1
  5
A4
 10
203.90697
 20
10.064344999999999
 30
0.0
 40
1.0000039999999999
 50
75.522547000000003
 51
104.47745
  0
ARC
  8
1
  6
CONTINUOUS
 62
               1
  5
A5
 10
217.26636999999999
 20
11.932594999999999
 30
0.0
 40
9.9999824000000004
 50
174.83637999999999
 51
185.16362000000001
  0
ARC
  8
1
  6
CONTINUOUS
 62
               1
  5
A6
 10
196.79757000000001
 20
11.932594999999999
 30
0.0
 40
9.9999824000000004
 50
354.83638000000008
 51
365.16361999999998
  0
ARC
  8
1
  6
CONTINUOUS
 62
               1
  5
A7
 10
195.62252000000001
 20
11.932594999999999
 30
0.0
 40
10.000031999999999
 50
354.83641
 51
362.68328000000002
  0
ARC
  8
1
  6
CONTINUOUS
 62
               1
  5
A8
 10
216.09137000000001
 20
11.932594999999999
 30
0.0
 40
9.9999643000000003
 50
177.31671
 51
185.16362000000001
  0
ARC
  8
1
  6
CONTINUOUS
 62
               1
  5
A9
 10
205.85696999999999
 20
2.4037445000000002
 30
0.0
 40
10.000012
 50
91.406177999999997
 51
93.726836000000006
  0
ARC
  8
1
  6
CONTINUOUS
 62
               1
  5
AA
 10
205.85696999999999
 20
22.811444999999999
 30
0.0
 40
9.9999973999999998
 50
266.27314999999999
 51
273.72685000000001
  0
ARC
  8
1
  6
CONTINUOUS
 62
               1
  5
AB
 10
204.43926999999999
 20
12.607594000000001
 30
0.0
 40
0.79997862
 50
343.66845999999998
 51
376.33497999999997
  0
ARC
  8
1
  6
CONTINUOUS
 62
               1
  5
AC
 10
207.27466999999999
 20
12.607594000000001
 30
0.0
 40
0.79999268
 50
163.66502
 51
196.33153999999999
  0
ARC
  8
1
  6
CONTINUOUS
 62
               1
  5
AD
 10
205.85696999999999
 20
2.4037445000000002
 30
0.0
 40
10.000047
 50
86.273163999999994
 51
88.593822000000003
  0
ARC
  8
1
  6
CONTINUOUS
 62
               1
  5
AE
 10
207.03197
 20
13.794045000000001
 30
0.0
 40
1.0000055999999999
 50
254.03808000000001
 51
285.96192000000002
  0
ARC
  8
1
  6
CONTINUOUS
 62
               1
  5
AF
 10
207.03197
 20
10.071145
 30
0.0
 40
1.0000055999999999
 50
74.038077000000001
 51
105.96192000000001
  0
ARC
  8
1
  6
CONTINUOUS
 62
               1
  5
B0
 10
205.85696999999999
 20
9.8645444999999992
 30
0.0
 40
1.1999858000000001
 50
76.751824999999997
 51
103.24818
  0
ARC
  8
1
  6
CONTINUOUS
 62
               1
  5
B1
 10
207.83197000000001
 20
10.071145
 30
0.0
 40
1.0000055999999999
 50
74.038077000000001
 51
105.96192000000001
  0
ARC
  8
1
  6
CONTINUOUS
 62
               1
  5
B2
 10
218.06637000000001
 20
11.932594999999999
 30
0.0
 40
9.9999608999999996
 50
181.04427999999999
 51
185.16362000000001
  0
ARC
  8
1
  6
CONTINUOUS
 62
               1
  5
B3
 10
207.83197000000001
 20
13.794045000000001
 30
0.0
 40
1.0000055999999999
 50
254.03808000000001
 51
285.96192000000002
  0
ARC
  8
1
  6
CONTINUOUS
 62
               1
  5
B4
 10
197.59756999999999
 20
11.932594999999999
 30
0.0
 40
9.9999824000000004
 50
354.83638000000008
 51
365.16361999999998
  0
ARC
  8
1
  6
CONTINUOUS
 62
               1
  5
B5
 10
218.91641999999999
 20
11.932594999999999
 30
0.0
 40
10.000031999999999
 50
174.83641
 51
185.16359
  0
ARC
  8
1
  6
CONTINUOUS
 62
               1
  5
B6
 10
208.68197000000001
 20
13.794045000000001
 30
0.0
 40
1.0000055999999999
 50
254.03808000000001
 51
285.96192000000002
  0
ARC
  8
1
  6
CONTINUOUS
 62
               1
  5
B7
 10
198.44757000000001
 20
11.932594999999999
 30
0.0
 40
9.9999617999999995
 50
1.0445639
 51
5.1636161999999999
  0
ARC
  8
1
  6
CONTINUOUS
 62
               1
  5
B8
 10
208.68197000000001
 20
10.071145
 30
0.0
 40
1.0000055999999999
 50
74.038077000000001
 51
105.96192000000001
  0
LINE
  8
1
  6
CONTINUOUS
 62
               1
  5
B9
 10
208.10696999999999
 20
12.832595
 30
0.0
 11
208.44587000000001
 21
12.114895000000001
 31
0.0
  0
LINE
  8
1
  6
CONTINUOUS
 62
               1
  5
BA
 10
208.40697
 20
11.032595000000001
 30
0.0
 11
208.06807000000001
 21
11.750344999999999
 31
0.0
  0
ARC
  8
1
  6
CONTINUOUS
 62
               1
  5
BB
 10
205.35696999999999
 20
5.7325945000000003
 30
0.0
 40
9.0000292999999996
 50
56.251136000000002
 51
123.74886000000001
  0
LINE
  8
1
  6
CONTINUOUS
 62
               1
  5
BC
 10
210.35696999999999
 20
13.215945
 30
0.0
 11
210.35696999999999
 21
15.415945000000001
 31
0.0
  0
ARC
  8
1
  6
CONTINUOUS
 62
               1
  5
BD
 10
210.19512
 20
11.932594999999999
 30
0.0
 40
1.0381724999999999
 50
130.46450999999999
 51
229.53370000000001
  0
ARC
  8
1
  6
CONTINUOUS
 62
               1
  5
BE
 10
209.85696999999999
 20
11.598845000000001
 30
0.0
 40
0.56622342
 50
233.65123
 51
282.91953000000001
  0
ARC
  8
1
  6
CONTINUOUS
 62
               1
  5
BF
 10
209.85696999999999
 20
12.266394999999999
 30
0.0
 40
0.56622726
 50
83.927436999999998
 51
126.34877
  0
LINE
  8
1
  6
CONTINUOUS
 62
               1
  5
C0
 10
210.35696999999999
 20
11.932594999999999
 30
0.0
 11
210.35696999999999
 21
11.132593999999999
 31
0.0
  0
LINE
  8
1
  6
CONTINUOUS
 62
               1
  5
C1
 10
210.35696999999999
 20
11.132593999999999
 30
0.0
 11
209.98356999999999
 21
11.046944999999999
 31
0.0
  0
LINE
  8
1
  6
CONTINUOUS
 62
               1
  5
C2
 10
210.35696999999999
 20
12.782595000000001
 30
0.0
 11
210.35696999999999
 21
12.182594999999999
 31
0.0
  0
LINE
  8
1
  6
CONTINUOUS
 62
               1
  5
C3
 10
209.65697
 20
12.082595
 30
0.0
 11
209.65697
 21
11.732594000000001
 31
0.0
  0
ARC
  8
1
  6
CONTINUOUS
 62
               1
  5
C4
 10
209.85696999999999
 20
11.732594000000001
 30
0.0
 40
0.2
 50
180.0
 51
240.90366
  0
ARC
  8
1
  6
CONTINUOUS
 62
               1
  5
C5
 10
208.95921999999999
 20
11.492095000000001
 30
0.0
 40
1.0000041
 50
359.83670999999998
 51
386.13585
  0
LINE
  8
1
  6
CONTINUOUS
 62
               1
  5
C6
 10
209.85696999999999
 20
11.932594999999999
 30
0.0
 11
210.35696999999999
 21
11.932594999999999
 31
0.0
  0
ARC
  8
1
  6
CONTINUOUS
 62
               1
  5
C7
 10
210.05152000000001
 20
12.082145000000001
 30
0.0
 40
0.60003144
 50
240.90181000000001
 51
261.15147999999999
  0
LINE
  8
1
  6
CONTINUOUS
 62
               1
  5
C8
 10
204.62377000000001
 20
11.948043999999999
 30
0.0
 11
205.00697
 21
11.032595000000001
 31
0.0
  0
ARC
  8
1
  6
CONTINUOUS
 62
               1
  5
C9
 10
204.73196999999999
 20
9.8645444999999992
 30
0.0
 40
1.1999858000000001
 50
76.751824999999997
 51
103.24818
  0
ARC
  8
1
  6
CONTINUOUS
 62
               1
  5
CA
 10
202.10526999999999
 20
9.8585945000000006
 30
0.0
 40
1.1999951
 50
77.119546
 51
101.94202
  0
ARC
  8
1
  6
CONTINUOUS
 62
               1
  5
CB
 10
200.84682000000001
 20
11.178544
 30
0.0
 40
1.9999941999999999
 50
355.69445999999999
 51
365.85583000000003
  0
ARC
  8
1
  6
CONTINUOUS
 62
               1
  5
CC
 10
203.10866999999999
 20
9.8585945000000006
 30
0.0
 40
1.1999704
 50
78.057979000000003
 51
102.88045
  0
LINE
  8
1
  6
CONTINUOUS
 62
               1
  5
CD
 10
210.35696999999999
 20
12.782595000000001
 30
0.0
 11
209.91686999999999
 21
12.829444000000001
 31
0.0
  0
ARC
  8
1
  6
CONTINUOUS
 62
               1
  5
CE
 10
209.95697000000001
 20
12.082595
 30
0.0
 40
0.30004938
 50
67.948600999999996
 51
180.0
  0
ARC
  8
1
  6
CONTINUOUS
 62
               1
  5
CF
 10
209.69417000000001
 20
11.433844000000001
 30
0.0
 40
0.9999652
 50
48.484467000000002
 51
67.948030000000003
  0
CIRCLE
  8
1
  6
CONTINUOUS
 62
               1
  5
D0
 10
209.75697
 20
16.682594999999999
 30
0.0
 40
0.65
  0
CIRCLE
  8
1
  6
CONTINUOUS
 62
               1
  5
D1
 10
209.75697
 20
16.682594999999999
 30
0.0
 40
0.55
  0
LINE
  8
1
  6
CONTINUOUS
 62
               1
  5
D2
 10
209.65697
 20
16.332594
 30
0.0
 11
209.65697
 21
16.632594000000001
 31
0.0
  0
LINE
  8
1
  6
CONTINUOUS
 62
               1
  5
D3
 10
209.65697
 20
16.932594999999999
 30
0.0
 11
209.80697000000001
 21
16.932594999999999
 31
0.0
  0
LINE
  8
1
  6
CONTINUOUS
 62
               1
  5
D4
 10
209.65697
 20
16.732595
 30
0.0
 11
209.80697000000001
 21
16.732595
 31
0.0
  0
LINE
  8
1
  6
CONTINUOUS
 62
               1
  5
D5
 10
209.74517
 20
16.632594000000001
 30
0.0
 11
209.89517000000001
 21
16.332594
 31
0.0
  0
LINE
  8
1
  6
CONTINUOUS
 62
               1
  5
D6
 10
209.55697000000001
 20
16.332594
 30
0.0
 11
209.65697
 21
16.332594
 31
0.0
  0
LINE
  8
1
  6
CONTINUOUS
 62
               1
  5
D7
 10
209.65697
 20
16.932594999999999
 30
0.0
 11
209.65697
 21
16.732595
 31
0.0
  0
LINE
  8
1
  6
CONTINUOUS
 62
               1
  5
D8
 10
210.00697
 20
16.332594
 30
0.0
 11
209.89517000000001
 21
16.332594
 31
0.0
  0
ARC
  8
1
  6
CONTINUOUS
 62
               1
  5
D9
 10
209.80697000000001
 20
16.832594
 30
0.0
 40
0.1
 50
270.0
 51
450.0
  0
ARC
  8
1
  6
CONTINUOUS
 62
               1
  5
DA
 10
209.80697000000001
 20
16.832594
 30
0.0
 40
0.19999941
 50
283.65062
 51
450.0
  0
TEXT
  8
1
  6
CONTINUOUS
 62
               1
  5
DB
 10
268.42178999999999
 20
17.275586000000001
 30
0.0
 40
3.5
  1
TB 09 69 281 x421
 41
0.75
 72
               1
 11
246.10928999999999
 21
15.525586000000001
 31
0.0
 73
               2
  0
LINE
  8
1
  6
CONTINUOUS
 62
               3
  5
DC
 10
278.53944999999999
 20
40.287511000000002
 30
0.0
 11
278.53944999999999
 21
5.2875110000000003
 31
0.0
  0
LINE
  8
1
  6
CONTINUOUS
 62
               3
  5
DD
 10
278.53944999999999
 20
20.287510999999999
 30
0.0
 11
292.57501999999999
 21
20.287510999999999
 31
0.0
  0
POINT
  8
1
  6
CONTINUOUS
 62
               1
  5
DE
 10
288.44331
 20
9.4141670000000008
 30
0.0
  0
POINT
  8
1
  6
CONTINUOUS
 62
               1
  5
DF
 10
283.93150000000003
 20
13.041304
 30
0.0
  0
TEXT
  8
1
  6
CONTINUOUS
 62
               1
  5
E0
 10
290.05703
 20
38.756036999999999
 30
0.0
 40
2.0
  1
MaЯstab/
 41
0.5
 72
               1
 11
285.55703
 21
37.756036999999999
 31
0.0
 73
               2
  0
TEXT
  8
1
  6
CONTINUOUS
 62
               1
  5
E1
 10
287.57668000000001
 20
36.024157000000002
 30
0.0
 40
2.0
  1
Scale
 41
0.5
 51
14.999999999999998
 72
               1
 11
285.07668000000001
 21
35.024157000000002
 31
0.0
 73
               2
  0
TEXT
  8
1
  6
CONTINUOUS
 62
               1
  5
E2
 10
286.48045999999999
 20
18.824273999999999
 30
0.0
 40
2.0
  1
Blatt/
 41
0.5
 72
               1
 11
283.48045999999999
 21
17.824273999999999
 31
0.0
 73
               2
  0
TEXT
  8
1
  6
CONTINUOUS
 62
               1
  5
E3
 10
290.94644
 20
18.776744000000001
 30
0.0
 40
2.0
  1
Page
 41
0.5
 51
14.999999999999998
 72
               1
 11
288.94644
 21
17.776744000000001
 31
0.0
 73
               2
  0
LINE
  8
1
  6
CONTINUOUS
 62
               3
  5
E4
 10
282.52985000000001
 20
8.7459819999999997
 30
0.0
 11
289.68184000000002
 21
13.925972
 31
0.0
  0
TEXT
  8
1
  6
CONTINUOUS
 62
               7
  5
E5
 10
118.76452999999999
 20
11.955174
 30
0.0
 40
2.0
  1
31057
 41
0.75
 72
               1
 11
115.01452999999999
 21
11.955174
 31
0.0
  0
TEXT
  8
1
  6
CONTINUOUS
 62
               7
  5
E6
 10
137.12823
 20
11.905601000000001
 30
0.0
 40
2.0
  1
21-JUN-02
 41
0.75
 72
               1
 11
130.37823
 21
11.905601000000001
 31
0.0
  0
TEXT
  8
1
  6
CONTINUOUS
 62
               7
  5
E7
 10
146.56116
 20
11.849375999999999
 30
0.0
 40
2.0
  1
CV
 41
0.75
 72
               1
 11
145.06116
 21
11.849375999999999
 31
0.0
  0
LINE
  8
1
  6
CONTINUOUS
 62
               7
  5
E8
 10
107.57501999999999
 20
40.287511000000002
 30
0.0
 11
292.57501999999999
 21
40.287511000000002
 31
0.0
  0
LINE
  8
1
  6
CONTINUOUS
 62
               7
  5
E9
 10
107.57501999999999
 20
10.287511
 30
0.0
 11
107.57501999999999
 21
5.2875110000000003
 31
0.0
  0
LINE
  8
1
  6
CONTINUOUS
 62
               7
  5
EA
 10
107.57501999999999
 20
10.287511
 30
0.0
 11
152.57501999999999
 21
10.287511
 31
0.0
  0
LINE
  8
1
  6
CONTINUOUS
 62
               7
  5
EB
 10
107.57501999999999
 20
15.287511
 30
0.0
 11
152.57501999999999
 21
15.287511
 31
0.0
  0
LINE
  8
1
  6
CONTINUOUS
 62
               7
  5
EC
 10
107.57501999999999
 20
20.287510999999999
 30
0.0
 11
212.57501999999999
 21
20.287510999999999
 31
0.0
  0
LINE
  8
1
  6
CONTINUOUS
 62
               7
  5
ED
 10
107.57501999999999
 20
25.287510999999999
 30
0.0
 11
192.57501999999999
 21
25.287510999999999
 31
0.0
  0
LINE
  8
1
  6
CONTINUOUS
 62
               7
  5
EE
 10
107.57501999999999
 20
30.287510999999999
 30
0.0
 11
192.57501999999999
 21
30.287510999999999
 31
0.0
  0
LINE
  8
1
  6
CONTINUOUS
 62
               7
  5
EF
 10
107.57501999999999
 20
35.287511000000002
 30
0.0
 11
192.57501999999999
 21
35.287511000000002
 31
0.0
  0
LINE
  8
1
  6
CONTINUOUS
 62
               3
  5
F0
 10
0.575022
 20
210.28751
 30
0.0
 11
0.575022
 21
0.287511
 31
0.0
  0
LINE
  8
1
  6
CONTINUOUS
 62
               3
  5
F1
 10
0.575022
 20
0.287511
 30
0.0
 11
297.57501999999999
 21
0.287511
 31
0.0
  0
LINE
  8
1
  6
CONTINUOUS
 62
               3
  5
F2
 10
297.57501999999999
 20
0.287511
 30
0.0
 11
297.57501999999999
 21
210.28751
 31
0.0
  0
LINE
  8
1
  6
CONTINUOUS
 62
               3
  5
F3
 10
297.57501999999999
 20
210.28751
 30
0.0
 11
0.575022
 21
210.28751
 31
0.0
  0
LINE
  8
1
  6
CONTINUOUS
 62
               2
  5
F4
 10
292.57501999999999
 20
195.28751
 30
0.0
 11
10.575022000000001
 21
195.28751
 31
0.0
  0
LINE
  8
1
  6
CONTINUOUS
 62
               2
  5
F5
 10
10.575022000000001
 20
5.2875110000000003
 30
0.0
 11
292.57501999999999
 21
5.2875110000000003
 31
0.0
  0
LINE
  8
1
  6
CONTINUOUS
 62
               2
  5
F6
 10
10.575022000000001
 20
5.2875110000000003
 30
0.0
 11
10.575022000000001
 21
195.28751
 31
0.0
  0
LINE
  8
1
  6
CONTINUOUS
 62
               3
  5
F7
 10
292.57501999999999
 20
190.28751
 30
0.0
 11
10.575022000000001
 21
190.28751
 31
0.0
  0
LINE
  8
1
  6
CONTINUOUS
 62
               3
  5
F8
 10
5.5750219999999997
 20
144.03751
 30
0.0
 11
10.575022000000001
 21
144.03751
 31
0.0
  0
LINE
  8
1
  6
CONTINUOUS
 62
               3
  5
F9
 10
5.5750219999999997
 20
97.787510999999995
 30
0.0
 11
10.575022000000001
 21
97.787510999999995
 31
0.0
  0
LINE
  8
1
  6
CONTINUOUS
 62
               3
  5
FA
 10
5.5750219999999997
 20
51.537511000000002
 30
0.0
 11
10.575022000000001
 21
51.537511000000002
 31
0.0
  0
LINE
  8
1
  6
CONTINUOUS
 62
               3
  5
FB
 10
235.17501999999999
 20
190.28751
 30
0.0
 11
235.17501999999999
 21
195.28751
 31
0.0
  0
LINE
  8
1
  6
CONTINUOUS
 62
               3
  5
FC
 10
177.77502000000001
 20
190.28751
 30
0.0
 11
177.77502000000001
 21
195.28751
 31
0.0
  0
LINE
  8
1
  6
CONTINUOUS
 62
               3
  5
FD
 10
120.37502000000001
 20
190.28751
 30
0.0
 11
120.37502000000001
 21
195.28751
 31
0.0
  0
LINE
  8
1
  6
CONTINUOUS
 62
               3
  5
FE
 10
149.07501999999999
 20
208.28751
 30
0.0
 11
149.07501999999999
 21
200.28751
 31
0.0
  0
TEXT
  8
1
  6
CONTINUOUS
 62
               1
  5
FF
 10
8.5750220000000006
 20
29.412510999999999
 30
0.0
 40
2.0
  1

 41
0.5
 72
               1
 11
8.0750220000000006
 21
28.412510999999999
 31
0.0
 73
               2
  0
TEXT
  8
1
  6
CONTINUOUS
 62
               1
  5
100
 10
149.20419999999999
 20
198.74565999999999
 30
0.0
 40
2.0
  1
Alle Rechte vorbehalten/
 41
0.5
 72
               1
 11
137.20419999999999
 21
197.74565999999999
 31
0.0
 73
               2
  0
TEXT
  8
1
  6
CONTINUOUS
 62
               1
  5
101
 10
169.4117
 20
198.82561999999999
 30
0.0
 40
2.0
  1
All rights reserved
 41
0.5
 51
14.999999999999998
 72
               1
 11
159.9117
 21
197.82561999999999
 31
0.0
 73
               2
  0
LINE
  8
1
  6
CONTINUOUS
 62
               2
  5
102
 10
292.57501999999999
 20
5.2875110000000003
 30
0.0
 11
292.57501999999999
 21
195.28751
 31
0.0
  0
POINT
  8
1
  6
CONTINUOUS
 62
               1
  5
103
 10
149.07501999999999
 20
105.28751
 30
0.0
  0
LINE
  8
1
  6
CONTINUOUS
 62
               3
  5
104
 10
5.5750219999999997
 20
5.2875110000000003
 30
0.0
 11
5.5750219999999997
 21
195.28751
 31
0.0
  0
LINE
  8
1
  6
CONTINUOUS
 62
               3
  5
105
 10
62.975022000000003
 20
190.28751
 30
0.0
 11
62.975022000000003
 21
195.28751
 31
0.0
  0
LINE
  8
1
  6
CONTINUOUS
 62
               3
  5
106
 10
10.575022000000001
 20
5.2875110000000003
 30
0.0
 11
5.5750219999999997
 21
5.2875110000000003
 31
0.0
  0
LINE
  8
1
  6
CONTINUOUS
 62
               3
  5
107
 10
10.575022000000001
 20
195.28751
 30
0.0
 11
5.5750219999999997
 21
195.28751
 31
0.0
  0
TEXT
  8
1
  6
CONTINUOUS
 62
               1
  5
108
 10
265.37502000000001
 20
194.28751
 30
0.0
 40
3.0
  1
1
 72
               1
 11
263.87502000000001
 21
192.78751
 31
0.0
 73
               2
  0
TEXT
  8
1
  6
CONTINUOUS
 62
               1
  5
109
 10
207.97502
 20
194.28751
 30
0.0
 40
3.0
  1
2
 72
               1
 11
206.47502
 21
192.78751
 31
0.0
 73
               2
  0
TEXT
  8
1
  6
CONTINUOUS
 62
               1
  5
10A
 10
150.57501999999999
 20
194.28751
 30
0.0
 40
3.0
  1
3
 72
               1
 11
149.07501999999999
 21
192.78751
 31
0.0
 73
               2
  0
TEXT
  8
1
  6
CONTINUOUS
 62
               1
  5
10B
 10
93.175021999999998
 20
194.28751
 30
0.0
 40
3.0
  1
4
 72
               1
 11
91.675021999999998
 21
192.78751
 31
0.0
 73
               2
  0
TEXT
  8
1
  6
CONTINUOUS
 62
               1
  5
10C
 10
38.275022
 20
194.28751
 30
0.0
 40
3.0
  1
5
 72
               1
 11
36.775022
 21
192.78751
 31
0.0
 73
               2
  0
TEXT
  8
1
  6
CONTINUOUS
 62
               1
  5
10D
 10
9.5750220000000006
 20
29.912510999999999
 30
0.0
 40
3.0
  1
A
 72
               1
 11
8.0750220000000006
 21
28.412510999999999
 31
0.0
 73
               2
  0
TEXT
  8
1
  6
CONTINUOUS
 62
               1
  5
10E
 10
9.5750220000000006
 20
76.162510999999995
 30
0.0
 40
3.0
  1
B
 72
               1
 11
8.0750220000000006
 21
74.662510999999995
 31
0.0
 73
               2
  0
TEXT
  8
1
  6
CONTINUOUS
 62
               1
  5
10F
 10
9.5750220000000006
 20
122.41251
 30
0.0
 40
3.0
  1
C
 72
               1
 11
8.0750220000000006
 21
120.91251
 31
0.0
 73
               2
  0
TEXT
  8
1
  6
CONTINUOUS
 62
               1
  5
110
 10
9.5750220000000006
 20
171.16251
 30
0.0
 40
3.0
  1
D
 72
               1
 11
8.0750220000000006
 21
169.66251
 31
0.0
 73
               2
  0
LINE
  8
1
  6
CONTINUOUS
 62
               1
  5
111
 10
210.17075
 20
11.089879
 30
0.0
 11
210.35696999999999
 21
11.276102
 31
0.0
  0
LINE
  8
1
  6
CONTINUOUS
 62
               1
  5
112
 10
209.83123000000001
 20
11.033206
 30
0.0
 11
210.35696999999999
 21
11.558945
 31
0.0
  0
LINE
  8
1
  6
CONTINUOUS
 62
               1
  5
113
 10
209.60631000000001
 20
11.091125999999999
 30
0.0
 11
210.35696999999999
 21
11.841787999999999
 31
0.0
  0
LINE
  8
1
  6
CONTINUOUS
 62
               1
  5
114
 10
209.44609
 20
11.213744
 30
0.0
 11
209.77959999999999
 21
11.547262999999999
 31
0.0
  0
LINE
  8
1
  6
CONTINUOUS
 62
               1
  5
115
 10
209.93648999999999
 20
11.704143999999999
 30
0.0
 11
210.16494
 21
11.932594999999999
 31
0.0
  0
LINE
  8
1
  6
CONTINUOUS
 62
               1
  5
116
 10
209.32139000000001
 20
11.371888999999999
 30
0.0
 11
209.65837999999999
 21
11.708883999999999
 31
0.0
  0
LINE
  8
1
  6
CONTINUOUS
 62
               1
  5
117
 10
209.86510999999999
 20
11.915614
 30
0.0
 11
209.88209000000001
 21
11.932594999999999
 31
0.0
  0
LINE
  8
1
  6
CONTINUOUS
 62
               1
  5
118
 10
210.22855000000001
 20
12.27905
 30
0.0
 11
210.35696999999999
 21
12.407473
 31
0.0
  0
LINE
  8
1
  6
CONTINUOUS
 62
               1
  5
119
 10
208.73633000000001
 20
11.069672000000001
 30
0.0
 11
208.93826000000001
 21
11.271603000000001
 31
0.0
  0
LINE
  8
1
  6
CONTINUOUS
 62
               1
  5
11A
 10
209.22627
 20
11.559609
 30
0.0
 11
209.65697
 21
11.990316
 31
0.0
  0
LINE
  8
1
  6
CONTINUOUS
 62
               1
  5
11B
 10
210.03811999999999
 20
12.371463
 30
0.0
 11
210.35696999999999
 21
12.690315999999999
 31
0.0
  0
LINE
  8
1
  6
CONTINUOUS
 62
               1
  5
11C
 10
208.42005
 20
11.036239999999999
 30
0.0
 11
208.92409000000001
 21
11.540274999999999
 31
0.0
  0
LINE
  8
1
  6
CONTINUOUS
 62
               1
  5
11D
 10
209.16766000000001
 20
11.783847
 30
0.0
 11
210.18474000000001
 21
12.800929
 31
0.0
  0
LINE
  8
1
  6
CONTINUOUS
 62
               1
  5
11E
 10
208.31927999999999
 20
11.218311
 30
0.0
 11
208.91707
 21
11.816098
 31
0.0
  0
LINE
  8
1
  6
CONTINUOUS
 62
               1
  5
11F
 10
209.16534999999999
 20
12.064377
 30
0.0
 11
209.92911000000001
 21
12.828141
 31
0.0
  0
LINE
  8
1
  6
CONTINUOUS
 62
               1
  5
120
 10
207.88772
 20
11.069595
 30
0.0
 11
208.08837
 21
11.270243000000001
 31
0.0
  0
LINE
  8
1
  6
CONTINUOUS
 62
               1
  5
121
 10
208.22856999999999
 20
11.410437999999999
 30
0.0
 11
208.91779
 21
12.099657000000001
 31
0.0
  0
LINE
  8
1
  6
CONTINUOUS
 62
               1
  5
122
 10
209.34128000000001
 20
12.523156
 30
0.0
 11
209.57628
 21
12.758152000000001
 31
0.0
  0
LINE
  8
1
  6
CONTINUOUS
 62
               1
  5
123
 10
207.57207
 20
11.036785
 30
0.0
 11
208.07417000000001
 21
11.538879
 31
0.0
  0
LINE
  8
1
  6
CONTINUOUS
 62
               1
  5
124
 10
208.13784999999999
 20
11.602563999999999
 30
0.0
 11
208.92693
 21
12.391646
 31
0.0
  0
LINE
  8
1
  6
CONTINUOUS
 62
               1
  5
125
 10
207.28979000000001
 20
11.037345
 30
0.0
 11
207.30517
 21
11.05273
 31
0.0
  0
LINE
  8
1
  6
CONTINUOUS
 62
               1
  5
126
 10
207.57919000000001
 20
11.326741999999999
 30
0.0
 11
208.42068
 21
12.168240000000001
 31
0.0
  0
LINE
  8
1
  6
CONTINUOUS
 62
               1
  5
127
 10
208.44417999999999
 20
12.191732999999999
 30
0.0
 11
208.94533000000001
 21
12.692892000000001
 31
0.0
  0
LINE
  8
1
  6
CONTINUOUS
 62
               1
  5
128
 10
207.04070999999999
 20
11.071111999999999
 30
0.0
 11
207.28542999999999
 21
11.315828
 31
0.0
  0
LINE
  8
1
  6
CONTINUOUS
 62
               1
  5
129
 10
207.59277
 20
11.623165999999999
 30
0.0
 11
208.32996
 21
12.360362
 31
0.0
  0
LINE
  8
1
  6
CONTINUOUS
 62
               1
  5
12A
 10
208.43341000000001
 20
12.463813999999999
 30
0.0
 11
208.76729
 21
12.797685
 31
0.0
  0
LINE
  8
1
  6
CONTINUOUS
 62
               1
  5
12B
 10
206.76061999999999
 20
11.073857
 30
0.0
 11
207.27241000000001
 21
11.585653000000001
 31
0.0
  0
LINE
  8
1
  6
CONTINUOUS
 62
               1
  5
12C
 10
207.59753000000001
 20
11.910773000000001
 30
0.0
 11
208.23924
 21
12.552484
 31
0.0
  0
LINE
  8
1
  6
CONTINUOUS
 62
               1
  5
12D
 10
208.41577000000001
 20
12.729012000000001
 30
0.0
 11
208.49789000000001
 21
12.811128999999999
 31
0.0
  0
LINE
  8
1
  6
CONTINUOUS
 62
               1
  5
12E
 10
206.78218000000001
 20
11.378264
 30
0.0
 11
207.26662999999999
 21
11.862719
 31
0.0
  0
LINE
  8
1
  6
CONTINUOUS
 62
               1
  5
12F
 10
207.59423000000001
 20
12.190318
 30
0.0
 11
208.14851999999999
 21
12.744605999999999
 31
0.0
  0
LINE
  8
1
  6
CONTINUOUS
 62
               1
  5
130
 10
206.79418999999999
 20
11.673116
 30
0.0
 11
207.2687
 21
12.147629999999999
 31
0.0
  0
LINE
  8
1
  6
CONTINUOUS
 62
               1
  5
131
 10
207.58350999999999
 20
12.462436
 30
0.0
 11
207.91890000000001
 21
12.797824
 31
0.0
  0
LINE
  8
1
  6
CONTINUOUS
 62
               1
  5
132
 10
205.90191999999999
 20
11.063688000000001
 30
0.0
 11
206.11305999999999
 21
11.274834999999999
 31
0.0
  0
LINE
  8
1
  6
CONTINUOUS
 62
               1
  5
133
 10
206.79751999999999
 20
11.959289999999999
 30
0.0
 11
207.27932999999999
 21
12.441098
 31
0.0
  0
LINE
  8
1
  6
CONTINUOUS
 62
               1
  5
134
 10
207.5659
 20
12.727668
 30
0.0
 11
207.64913000000001
 21
12.810897000000001
 31
0.0
  0
LINE
  8
1
  6
CONTINUOUS
 62
               1
  5
135
 10
205.5898
 20
11.034409
 30
0.0
 11
206.09898000000001
 21
11.54359
 31
0.0
  0
LINE
  8
1
  6
CONTINUOUS
 62
               1
  5
136
 10
206.7929
 20
12.237518
 30
0.0
 11
207.29936000000001
 21
12.743975000000001
 31
0.0
  0
LINE
  8
1
  6
CONTINUOUS
 62
               1
  5
137
 10
205.6045
 20
11.331956
 30
0.0
 11
206.09205
 21
11.819504
 31
0.0
  0
LINE
  8
1
  6
CONTINUOUS
 62
               1
  5
138
 10
206.78095999999999
 20
12.508418000000001
 30
0.0
 11
207.06720000000001
 21
12.79466
 31
0.0
  0
LINE
  8
1
  6
CONTINUOUS
 62
               1
  5
139
 10
205.61792
 20
11.628220000000001
 30
0.0
 11
206.09286
 21
12.103161999999999
 31
0.0
  0
LINE
  8
1
  6
CONTINUOUS
 62
               1
  5
13A
 10
206.37982
 20
12.390114000000001
 30
0.0
 11
206.4829
 21
12.4932
 31
0.0
  0
LINE
  8
1
  6
CONTINUOUS
 62
               1
  5
13B
 10
206.76222000000001
 20
12.772517000000001
 30
0.0
 11
206.80893
 21
12.819229999999999
 31
0.0
  0
LINE
  8
1
  6
CONTINUOUS
 62
               1
  5
13C
 10
204.77076
 20
11.063903
 30
0.0
 11
204.92803000000001
 21
11.221175000000001
 31
0.0
  0
LINE
  8
1
  6
CONTINUOUS
 62
               1
  5
13D
 10
205.62253999999999
 20
11.915682
 30
0.0
 11
206.10212000000001
 21
12.395258
 31
0.0
  0
LINE
  8
1
  6
CONTINUOUS
 62
               1
  5
13E
 10
206.10750999999999
 20
12.400653
 30
0.0
 11
206.49542
 21
12.788557000000001
 31
0.0
  0
LINE
  8
1
  6
CONTINUOUS
 62
               1
  5
13F
 10
204.45689999999999
 20
11.032878999999999
 30
0.0
 11
204.84457
 21
11.420558
 31
0.0
  0
LINE
  8
1
  6
CONTINUOUS
 62
               1
  5
140
 10
205.61911000000001
 20
12.195093
 30
0.0
 11
206.24290999999999
 21
12.818897
 31
0.0
  0
LINE
  8
1
  6
CONTINUOUS
 62
               1
  5
141
 10
204.38978
 20
11.248605
 30
0.0
 11
204.76111
 21
11.619941000000001
 31
0.0
  0
LINE
  8
1
  6
CONTINUOUS
 62
               1
  5
142
 10
205.53989999999999
 20
12.398728
 30
0.0
 11
205.95308
 21
12.811909
 31
0.0
  0
LINE
  8
1
  6
CONTINUOUS
 62
               1
  5
143
 10
203.92256
 20
11.064227000000001
 30
0.0
 11
204.13775000000001
 21
11.279418
 31
0.0
  0
LINE
  8
1
  6
CONTINUOUS
 62
               1
  5
144
 10
204.30977999999999
 20
11.451451
 30
0.0
 11
204.67765
 21
11.819323000000001
 31
0.0
  0
LINE
  8
1
  6
CONTINUOUS
 62
               1
  5
145
 10
205.24323999999999
 20
12.384905
 30
0.0
 11
205.67150000000001
 21
12.813167
 31
0.0
  0
LINE
  8
1
  6
CONTINUOUS
 62
               1
  5
146
 10
203.66166999999999
 20
11.086182000000001
 30
0.0
 11
204.12378000000001
 21
11.548292999999999
 31
0.0
  0
LINE
  8
1
  6
CONTINUOUS
 62
               1
  5
147
 10
204.21807999999999
 20
11.64259
 30
0.0
 11
204.95694
 21
12.381456
 31
0.0
  0
LINE
  8
1
  6
CONTINUOUS
 62
               1
  5
148
 10
205.23740000000001
 20
12.661917000000001
 30
0.0
 11
205.39750000000001
 21
12.822009
 31
0.0
  0
LINE
  8
1
  6
CONTINUOUS
 62
               1
  5
149
 10
203.33052000000001
 20
11.037879
 30
0.0
 11
203.35026999999999
 21
11.057622
 31
0.0
  0
LINE
  8
1
  6
CONTINUOUS
 62
               1
  5
14A
 10
203.68283
 20
11.390188999999999
 30
0.0
 11
204.89796000000001
 21
12.605314999999999
 31
0.0
  0
LINE
  8
1
  6
CONTINUOUS
 62
               1
  5
14B
 10
203.06766999999999
 20
11.057864
 30
0.0
 11
203.29050000000001
 21
11.280692999999999
 31
0.0
  0
LINE
  8
1
  6
CONTINUOUS
 62
               1
  5
14C
 10
203.69448
 20
11.684678999999999
 30
0.0
 11
204.19239999999999
 21
12.182594999999999
 31
0.0
  0
LINE
  8
1
  6
CONTINUOUS
 62
               1
  5
14D
 10
204.34889000000001
 20
12.339085000000001
 30
0.0
 11
204.76266000000001
 21
12.752862
 31
0.0
  0
LINE
  8
1
  6
CONTINUOUS
 62
               1
  5
14E
 10
202.84593000000001
 20
11.118969999999999
 30
0.0
 11
203.23071999999999
 21
11.503765
 31
0.0
  0
LINE
  8
1
  6
CONTINUOUS
 62
               1
  5
14F
 10
203.69748000000001
 20
11.970523
 30
0.0
 11
204.55676
 21
12.829803999999999
 31
0.0
  0
LINE
  8
1
  6
CONTINUOUS
 62
               1
  5
150
 10
202.82670999999999
 20
11.382593999999999
 30
0.0
 11
203.17095
 21
11.726837
 31
0.0
  0
LINE
  8
1
  6
CONTINUOUS
 62
               1
  5
151
 10
203.69256999999999
 20
12.248448
 30
0.0
 11
204.26677000000001
 21
12.822654999999999
 31
0.0
  0
LINE
  8
1
  6
CONTINUOUS
 62
               1
  5
152
 10
202.21485000000001
 20
11.053576
 30
0.0
 11
202.36733000000001
 21
11.206051
 31
0.0
  0
LINE
  8
1
  6
CONTINUOUS
 62
               1
  5
153
 10
202.54387
 20
11.382593999999999
 30
0.0
 11
203.11117999999999
 21
11.949909
 31
0.0
  0
LINE
  8
1
  6
CONTINUOUS
 62
               1
  5
154
 10
203.68034
 20
12.519068000000001
 30
0.0
 11
203.97116
 21
12.809882999999999
 31
0.0
  0
LINE
  8
1
  6
CONTINUOUS
 62
               1
  5
155
 10
201.92312000000001
 20
11.044682999999999
 30
0.0
 11
202.66103000000001
 21
11.782595000000001
 31
0.0
  0
LINE
  8
1
  6
CONTINUOUS
 62
               1
  5
156
 10
202.71552
 20
11.83709
 30
0.0
 11
203.05141
 21
12.172981
 31
0.0
  0
LINE
  8
1
  6
CONTINUOUS
 62
               1
  5
157
 10
203.66134
 20
12.782906000000001
 30
0.0
 11
203.70176000000001
 21
12.823326
 31
0.0
  0
LINE
  8
1
  6
CONTINUOUS
 62
               1
  5
158
 10
201.94071
 20
11.345124
 30
0.0
 11
202.52248
 21
11.926895
 31
0.0
  0
LINE
  8
1
  6
CONTINUOUS
 62
               1
  5
159
 10
202.65575999999999
 20
12.060166000000001
 30
0.0
 11
202.99163999999999
 21
12.396053
 31
0.0
  0
LINE
  8
1
  6
CONTINUOUS
 62
               1
  5
15A
 10
201.37025
 20
11.057503000000001
 30
0.0
 11
201.54121000000001
 21
11.228465
 31
0.0
  0
LINE
  8
1
  6
CONTINUOUS
 62
               1
  5
15B
 10
202.04424
 20
11.731491999999999
 30
0.0
 11
202.93187
 21
12.619123999999999
 31
0.0
  0
LINE
  8
1
  6
CONTINUOUS
 62
               1
  5
15C
 10
201.11125999999999
 20
11.081355
 30
0.0
 11
201.52592000000001
 21
11.496021000000001
 31
0.0
  0
LINE
  8
1
  6
CONTINUOUS
 62
               1
  5
15D
 10
202.14776000000001
 20
12.11786
 30
0.0
 11
202.85803000000001
 21
12.828124000000001
 31
0.0
  0
LINE
  8
1
  6
CONTINUOUS
 62
               1
  5
15E
 10
200.78456
 20
11.0375
 30
0.0
 11
200.80474000000001
 21
11.057683000000001
 31
0.0
  0
LINE
  8
1
  6
CONTINUOUS
 62
               1
  5
15F
 10
201.13257999999999
 20
11.385517999999999
 30
0.0
 11
201.51769999999999
 21
11.770640999999999
 31
0.0
  0
LINE
  8
1
  6
CONTINUOUS
 62
               1
  5
160
 10
202.25129000000001
 20
12.504227999999999
 30
0.0
 11
202.54507000000001
 21
12.798014
 31
0.0
  0
LINE
  8
1
  6
CONTINUOUS
 62
               1
  5
161
 10
200.52056999999999
 20
11.056349000000001
 30
0.0
 11
200.78512000000001
 21
11.320905
 31
0.0
  0
LINE
  8
1
  6
CONTINUOUS
 62
               1
  5
162
 10
201.14437000000001
 20
11.680149999999999
 30
0.0
 11
201.51711
 21
12.052896
 31
0.0
  0
LINE
  8
1
  6
CONTINUOUS
 62
               1
  5
163
 10
200.36983000000001
 20
11.188454
 30
0.0
 11
200.77224000000001
 21
11.590862
 31
0.0
  0
LINE
  8
1
  6
CONTINUOUS
 62
               1
  5
164
 10
200.86396999999999
 20
11.682594999999999
 30
0.0
 11
201.52483000000001
 21
12.343458999999999
 31
0.0
  0
LINE
  8
1
  6
CONTINUOUS
 62
               1
  5
165
 10
200.38772
 20
11.489186999999999
 30
0.0
 11
201.08113
 21
12.182594999999999
 31
0.0
  0
LINE
  8
1
  6
CONTINUOUS
 62
               1
  5
166
 10
201.14268999999999
 20
12.244161
 30
0.0
 11
201.54167000000001
 21
12.643133000000001
 31
0.0
  0
LINE
  8
1
  6
CONTINUOUS
 62
               1
  5
167
 10
200.3964
 20
11.780711999999999
 30
0.0
 11
200.79828000000001
 21
12.182594999999999
 31
0.0
  0
LINE
  8
1
  6
CONTINUOUS
 62
               1
  5
168
 10
201.13058000000001
 20
12.514889999999999
 30
0.0
 11
201.42719
 21
12.811496999999999
 31
0.0
  0
LINE
  8
1
  6
CONTINUOUS
 62
               1
  5
169
 10
200.39669000000001
 20
12.063846
 30
0.0
 11
200.77961999999999
 21
12.446771
 31
0.0
  0
LINE
  8
1
  6
CONTINUOUS
 62
               1
  5
16A
 10
201.11168000000001
 20
12.778831
 30
0.0
 11
201.15549999999999
 21
12.822649
 31
0.0
  0
LINE
  8
1
  6
CONTINUOUS
 62
               1
  5
16B
 10
200.38928000000001
 20
12.339276999999999
 30
0.0
 11
200.79983999999999
 21
12.749836
 31
0.0
  0
LINE
  8
1
  6
CONTINUOUS
 62
               1
  5
16C
 10
200.37475000000001
 20
12.607586
 30
0.0
 11
200.57415
 21
12.806984999999999
 31
0.0
  0
LINE
  8
1
  6
CONTINUOUS
 62
               1
  5
16D
 10
210.01942
 20
16.087933
 30
0.0
 11
210.35163
 21
16.420148999999999
 31
0.0
  0
LINE
  8
1
  6
CONTINUOUS
 62
               1
  5
16E
 10
209.68521000000001
 20
16.036567999999999
 30
0.0
 11
209.7818
 21
16.133154999999999
 31
0.0
  0
LINE
  8
1
  6
CONTINUOUS
 62
               1
  5
16F
 10
209.98124000000001
 20
16.332594
 30
0.0
 11
209.99839
 21
16.349753
 31
0.0
  0
LINE
  8
1
  6
CONTINUOUS
 62
               1
  5
170
 10
210.30641
 20
16.657769999999999
 30
0.0
 11
210.40299999999999
 21
16.754356999999999
 31
0.0
  0
LINE
  8
1
  6
CONTINUOUS
 62
               1
  5
171
 10
209.46677
 20
16.100973
 30
0.0
 11
209.5421
 21
16.176303000000001
 31
0.0
  0
LINE
  8
1
  6
CONTINUOUS
 62
               1
  5
172
 10
209.82957999999999
 20
16.46378
 30
0.0
 11
209.90412000000001
 21
16.538325
 31
0.0
  0
LINE
  8
1
  6
CONTINUOUS
 62
               1
  5
173
 10
210.26326
 20
16.897463999999999
 30
0.0
 11
210.33859000000001
 21
16.972795000000001
 31
0.0
  0
LINE
  8
1
  6
CONTINUOUS
 62
               1
  5
174
 10
209.30166
 20
16.218706000000001
 30
0.0
 11
209.37237999999999
 21
16.28942
 31
0.0
  0
LINE
  8
1
  6
CONTINUOUS
 62
               1
  5
175
 10
209.55697000000001
 20
16.474015999999999
 30
0.0
 11
209.65697
 21
16.574016
 31
0.0
  0
LINE
  8
1
  6
CONTINUOUS
 62
               1
  5
176
 10
209.71555000000001
 20
16.632594000000001
 30
0.0
 11
209.81595999999999
 21
16.732999
 31
0.0
  0
LINE
  8
1
  6
CONTINUOUS
 62
               1
  5
177
 10
209.90656999999999
 20
16.823612000000001
 30
0.0
 11
209.99185
 21
16.908891000000001
 31
0.0
  0
LINE
  8
1
  6
CONTINUOUS
 62
               1
  5
178
 10
210.15015
 20
17.06719
 30
0.0
 11
210.22085999999999
 21
17.137905
 31
0.0
  0
LINE
  8
1
  6
CONTINUOUS
 62
               1
  5
179
 10
209.18116000000001
 20
16.381041
 30
0.0
 11
209.25591
 21
16.455797
 31
0.0
  0
LINE
  8
1
  6
CONTINUOUS
 62
               1
  5
17A
 10
209.55697000000001
 20
16.756858999999999
 30
0.0
 11
209.65697
 21
16.856859
 31
0.0
  0
LINE
  8
1
  6
CONTINUOUS
 62
               1
  5
17B
 10
209.73271
 20
16.932594999999999
 30
0.0
 11
209.83123000000001
 21
17.031116999999998
 31
0.0
  0
LINE
  8
1
  6
CONTINUOUS
 62
               1
  5
17C
 10
209.98376999999999
 20
17.183655999999999
 30
0.0
 11
210.05852999999999
 21
17.258412
 31
0.0
  0
LINE
  8
1
  6
CONTINUOUS
 62
               1
  5
17D
 10
209.11283
 20
16.595555000000001
 30
0.0
 11
209.20702
 21
16.689748000000002
 31
0.0
  0
LINE
  8
1
  6
CONTINUOUS
 62
               1
  5
17E
 10
209.74982
 20
17.232548000000001
 30
0.0
 11
209.84401
 21
17.326740999999998
 31
0.0
  0
LINE
  8
1
  6
CONTINUOUS
 62
               1
  5
17F
 10
209.15026
 20
16.915831000000001
 30
0.0
 11
209.52374
 21
17.289307999999998
 31
0.0
  0
TEXT
  8
1
  6
CONTINUOUS
 62
               1
  5
180
 10
209.45106000000001
 20
28.511845999999998
 30
0.0
 40
2.0
  1
All Dim. in mm
 41
0.5
 72
               1
 11
202.45106000000001
 21
27.511845999999998
 31
0.0
 73
               2
  0
TEXT
  8
1
  6
CONTINUOUS
 62
               1
  5
181
 10
211.45106000000001
 20
24.511845999999998
 30
0.0
 40
2.0
  1
Orig. Size DIN A 4
 41
0.5
 72
               1
 11
202.45106000000001
 21
23.511845999999998
 31
0.0
 73
               2
  0
TEXT
  8
1
  6
CONTINUOUS
 62
               1
  5
182
 10
156.12073000000001
 20
13.300929999999999
 30
0.0
 40
3.0
  1
HARTING EURL
 41
0.75
  0
TEXT
  8
1
  6
CONTINUOUS
 62
               1
  5
183
 10
156.12073000000001
 20
8.8009299999999993
 30
0.0
 40
3.0
  1
F-95972 Paris
 41
0.75
  0
DIMENSION
  8
2
  6
CONTINUOUS
 62
               7
  5
184
  2
*D2
 10
144.81563
 20
121.10138999999999
 30
0.0
 11
144.26543000000001
 21
123.91065999999999
 31
0.0
 70
             128
  1
|<>
 13
144.72970000000001
 23
115.90139000000001
 33
0.0
 14
144.60163
 24
121.10138999999999
 34
0.0
 50
90.0
  3
DSTYLE1
  0
DIMENSION
  8
2
  6
CONTINUOUS
 62
               7
  5
185
  2
*D3
 10
148.13497000000001
 20
120.89888999999999
 30
0.0
 11
147.36601999999999
 21
123.91649
 31
0.0
 70
             128
  1
|<>
 13
146.79174
 23
116.13388999999999
 33
0.0
 14
146.79174
 24
120.89888999999999
 34
0.0
 50
90.0
  3
DSTYLE2
  0
DIMENSION
  8
2
  6
CONTINUOUS
 62
               7
  5
186
  2
*D4
 10
150.14222000000001
 20
121.24388999999999
 30
0.0
 11
149.59201999999999
 21
123.58642999999999
 31
0.0
 70
             128
  1
| <>
 13
148.94174000000001
 23
115.75888999999999
 33
0.0
 14
148.94174000000001
 24
121.24388999999999
 34
0.0
 50
90.0
  3
DSTYLE3
  0
DIMENSION
  8
2
  6
CONTINUOUS
 62
               7
  5
187
  2
*D5
 10
151.84173999999999
 20
110.15979
 30
0.0
 11
154.27015
 21
110.70999
 31
0.0
 70
             128
 13
148.94174000000001
 23
115.75888999999999
 33
0.0
 14
151.84173999999999
 24
115.75888999999999
 34
0.0
  3
DSTYLE4
  0
DIMENSION
  8
2
  6
CONTINUOUS
 62
               7
  5
188
  2
*D6
 10
146.69174000000001
 20
111.78839000000001
 30
0.0
 11
145.20357999999999
 21
112.55734
 31
0.0
 70
             128
 13
148.94174000000001
 23
115.75888999999999
 33
0.0
 14
146.69174000000001
 24
115.90139000000001
 34
0.0
  3
DSTYLE5
  0
LINE
  8
2
  6
CONTINUOUS
 62
               7
  5
189
 10
135.69400999999999
 20
114.97423999999999
 30
0.0
 11
121.32995
 21
114.97423999999999
 31
0.0
  0
TEXT
  8
2
  6
CONTINUOUS
 62
               7
  5
18A
 10
121.35326000000001
 20
115.34777
 30
0.0
 40
0.5
  1
Point of plating thickness measurement
 41
0.75
  0
LINE
  8
1
  6
CONTINUOUS
 62
               2
  5
18B
 10
107.57501999999999
 20
40.287511000000002
 30
0.0
 11
107.57501999999999
 21
5.2875110000000003
 31
0.0
  0
LINE
  8
1
  6
CONTINUOUS
 62
               7
  5
18C
 10
10.575022000000001
 20
40.287511000000002
 30
0.0
 11
107.57501999999999
 21
40.287511000000002
 31
0.0
  0
LINE
  8
1
  6
CONTINUOUS
 62
               7
  5
18D
 10
107.57501999999999
 20
10.287511
 30
0.0
 11
107.57501999999999
 21
5.2875110000000003
 31
0.0
  0
LINE
  8
1
  6
CONTINUOUS
 62
               7
  5
18E
 10
40.381163000000001
 20
25.287510999999999
 30
0.0
 11
107.57501999999999
 21
25.287510999999999
 31
0.0
  0
LINE
  8
1
  6
CONTINUOUS
 62
               7
  5
18F
 10
10.575022000000001
 20
35.287511000000002
 30
0.0
 11
107.57501999999999
 21
35.287511000000002
 31
0.0
  0
LINE
  8
1
  6
CONTINUOUS
 62
               2
  5
190
 10
10.575022000000001
 20
5.2875110000000003
 30
0.0
 11
107.57501999999999
 21
5.2875110000000003
 31
0.0
  0
TEXT
  8
1
  6
CONTINUOUS
 62
               1
  5
191
 10
8.5750220000000006
 20
29.412510999999999
 30
0.0
 40
2.0
  1

 41
0.5
 72
               1
 11
8.0750220000000006
 21
28.412510999999999
 31
0.0
 73
               2
  0
LINE
  8
1
  6
CONTINUOUS
 62
               7
  5
192
 10
40.381163000000001
 20
15.287511
 30
0.0
 11
107.57501999999999
 21
15.287511
 31
0.0
  0
LINE
  8
1
  6
CONTINUOUS
 62
               7
  5
193
 10
40.381163000000001
 20
5.2875110000000003
 30
0.0
 11
40.381163000000001
 21
40.287511000000002
 31
0.0
  0
LINE
  8
1
  6
CONTINUOUS
 62
               7
  5
194
 10
10.575022000000001
 20
10.287511
 30
0.0
 11
107.57501999999999
 21
10.287511
 31
0.0
  0
TEXT
  8
1
  6
CONTINUOUS
 62
               7
  5
195
 10
97.821004000000002
 20
15.833189000000001
 30
0.0
 40
2.5
  1
Au
 41
0.75
  0
TEXT
  8
1
  6
CONTINUOUS
 62
               7
  5
196
 10
69.308255000000003
 20
6.3741349999999999
 30
0.0
 40
2.5
  1
Plating
 41
0.75
  0
TEXT
  8
1
  6
CONTINUOUS
 62
               7
  5
197
 10
85.331717999999995
 20
15.957013
 30
0.0
 40
2.5
  1
0,8 um
 41
0.75
  0
ARC
  8
1
  6
CONTINUOUS
 62
               7
  5
198
 10
92.188443000000007
 20
16.496576000000001
 30
0.0
 40
1.0989388
 50
299.53111999999999
 51
353.08877999999999
  0
TEXT
  8
1
  6
CONTINUOUS
 62
               1
  5
199
 10
68.036321000000001
 20
18.742366000000001
 30
0.0
 40
2.5
  1
Mating area
 41
0.75
 72
               1
 11
57.723821000000001
 21
17.492366000000001
 31
0.0
 73
               2
  0
TEXT
  8
1
  6
CONTINUOUS
 62
               1
  5
19A
 10
73.652619000000001
 20
13.479176000000001
 30
0.0
 40
2.5
  1
Termination area
 41
0.75
 72
               1
 11
58.652619000000001
 21
12.229176000000001
 31
0.0
 73
               2
  0
TEXT
  8
1
  6
CONTINUOUS
 62
               7
  5
19B
 10
85.585818000000003
 20
10.837707999999999
 30
0.0
 40
2.5
  1
0,2 um
 41
0.75
  0
ARC
  8
1
  6
CONTINUOUS
 62
               7
  5
19C
 10
92.442543000000001
 20
11.377272
 30
0.0
 40
1.0989388
 50
299.53111999999999
 51
353.08877999999999
  0
TEXT
  8
1
  6
CONTINUOUS
 62
               7
  5
19D
 10
97.653066999999993
 20
10.951136999999999
 30
0.0
 40
2.5
  1
Au
 41
0.75
  0
LINE
  8
1
  6
CONTINUOUS
 62
               7
  5
19E
 10
77.242041
 20
10.287511
 30
0.0
 11
77.242041
 21
40.287511000000002
 31
0.0
  0
LINE
  8
1
  6
CONTINUOUS
 62
               7
  5
19F
 10
107.57501999999999
 20
20.287510999999999
 30
0.0
 11
10.575022000000001
 21
20.287510999999999
 31
0.0
  0
LINE
  8
1
  6
CONTINUOUS
 62
               7
  5
1A0
 10
107.57501999999999
 20
30.287510999999999
 30
0.0
 11
10.575022000000001
 21
30.287510999999999
 31
0.0
  0
TEXT
  8
1
  6
CONTINUOUS
 62
               7
  5
1A1
 10
15.169347999999999
 20
6.4447570000000001
 30
0.0
 40
2.5
  1
Part number
 41
0.75
  0
TEXT
  8
1
  6
CONTINUOUS
 62
               7
  5
1A2
 10
14.926318999999999
 20
14.013089000000001
 30
0.0
 40
2.5
  1
09692815421
 41
0.75
  0
TEXT
  8
1
  6
CONTINUOUS
 62
               7
  5
1A3
 10
14.812391
 20
24.152640999999999
 30
0.0
 40
2.5
  1
09692817421
 41
0.75
  0
TEXT
  8
1
  6
CONTINUOUS
 62
               7
  5
1A4
 10
97.821004000000002
 20
25.833189000000001
 30
0.0
 40
2.5
  1
Au
 41
0.75
  0
TEXT
  8
1
  6
CONTINUOUS
 62
               7
  5
1A5
 10
85.331717999999995
 20
25.957013
 30
0.0
 40
2.5
  1
0,2 um
 41
0.75
  0
INSERT
  8
1
  5
1A6
  2
*T1
 10
245.45627999999999
 20
33.492550999999999
 30
0.0
  0
ARC
  8
1
  6
CONTINUOUS
 62
               7
  5
1A7
 10
92.166449
 20
26.496576000000001
 30
0.0
 40
1.0989388
 50
299.53111999999999
 51
353.08877999999999
  0
TEXT
  8
1
  6
CONTINUOUS
 62
               1
  5
1A8
 10
68.036321000000001
 20
28.742366000000001
 30
0.0
 40
2.5
  1
Mating area
 41
0.75
 72
               1
 11
57.723821000000001
 21
27.492366000000001
 31
0.0
 73
               2
  0
TEXT
  8
1
  6
CONTINUOUS
 62
               1
  5
1A9
 10
73.652619000000001
 20
23.479175999999999
 30
0.0
 40
2.5
  1
Termination area
 41
0.75
 72
               1
 11
58.652619000000001
 21
22.229175999999999
 31
0.0
 73
               2
  0
TEXT
  8
1
  6
CONTINUOUS
 62
               7
  5
1AA
 10
85.585818000000003
 20
20.837707999999999
 30
0.0
 40
2.5
  1
5 um
 41
0.75
  0
ARC
  8
1
  6
CONTINUOUS
 62
               7
  5
1AB
 10
88.684669
 20
21.377272000000001
 30
0.0
 40
1.0989388
 50
299.53111999999999
 51
353.08877999999999
  0
LINE
  8
2
  6
CONTINUOUS
 62
               7
  5
1AC
 10
151.84173999999999
 20
120.30139
 30
0.0
 11
156.34206
 21
120.30139
 31
0.0
  0
ARC
  8
2
  6
CONTINUOUS
 62
               7
  5
1AD
 10
159.65626
 20
122.35715
 30
0.0
 40
3.8999999999999999
 50
211.81081
 51
261.36108999999999
  0
LINE
  8
2
  6
CONTINUOUS
 62
               7
  5
1AE
 10
159.07044999999999
 20
118.50139
 30
0.0
 11
160.24206000000001
 21
118.50139
 31
0.0
  0
LINE
  8
2
  6
CONTINUOUS
 62
               7
  5
1AF
 10
160.24206000000001
 20
118.50139
 30
0.0
 11
160.24206000000001
 21
116.70139
 31
0.0
  0
TEXT
  8
1
  6
CONTINUOUS
 62
               7
  5
1B0
 10
94.625867
 20
20.669342
 30
0.0
 40
2.5
  1
Sn
 41
0.75
  0
LINE
  8
2
  6
CONTINUOUS
 62
               7
  5
1B1
 10
151.84173999999999
 20
116.70139
 30
0.0
 11
160.24206000000001
 21
116.70139
 31
0.0
  0
LINE
  8
2
  6
HIDDEN
 62
               4
  5
1B2
 10
152.44206
 20
117.15139000000001
 30
0.0
 11
160.04205999999999
 21
117.15139000000001
 31
0.0
  0
LINE
  8
2
  6
HIDDEN
 62
               4
  5
1B3
 10
160.04205999999999
 20
118.50139
 30
0.0
 11
160.04205999999999
 21
117.15139000000001
 31
0.0
  0
LINE
  8
2
  6
HIDDEN
 62
               4
  5
1B4
 10
152.44206
 20
117.15139000000001
 30
0.0
 11
151.66264000000001
 21
118.50139
 31
0.0
  0
LINE
  8
2
  6
HIDDEN
 62
               4
  5
1B5
 10
152.44206
 20
119.85138999999999
 30
0.0
 11
151.66264000000001
 21
118.50139
 31
0.0
  0
LINE
  8
2
  6
HIDDEN
 62
               4
  5
1B6
 10
152.44206
 20
117.15139000000001
 30
0.0
 11
152.44206
 21
119.85138999999999
 31
0.0
  0
LINE
  8
2
  6
HIDDEN
 62
               4
  5
1B7
 10
152.44206
 20
119.85138999999999
 30
0.0
 11
156.66774000000001
 21
119.85138999999999
 31
0.0
  0
DIMENSION
  8
2
  6
CONTINUOUS
 62
               1
  5
1B8
  2
*D7
 10
163.96659
 20
117.15139000000001
 30
0.0
 11
163.19764000000001
 21
122.22853000000001
 31
0.0
 70
             128
 13
156.66774000000001
 23
119.85138999999999
 33
0.0
 14
160.04205999999999
 24
117.15139000000001
 34
0.0
 50
90.0
  3
DSTYLE6
  0
DIMENSION
  8
2
  6
CONTINUOUS
 62
               1
  5
1B9
  2
*D8
 10
166.06815
 20
120.30139
 30
0.0
 11
165.51795000000001
 21
122.40255999999999
 31
0.0
 70
             128
 13
160.24206000000001
 23
116.70139
 33
0.0
 14
156.34206
 24
120.30139
 34
0.0
 50
90.0
  3
DSTYLE7
  0
DIMENSION
  8
2
  6
CONTINUOUS
 62
               1
  5
1BA
  2
*D9
 10
160.24206000000001
 20
124.7015
 30
0.0
 11
158.16195999999999
 21
125.2517
 31
0.0
 70
             128
 13
156.34206
 23
120.30139
 33
0.0
 14
160.24206000000001
 24
118.50139
 34
0.0
  3
DSTYLE4
  0
LINE
  8
2
  6
CENTERLINE
 62
               3
  5
1BB
 10
136.19757999999999
 20
118.50139
 30
0.0
 11
160.69450000000001
 21
118.50139
 31
0.0
  0
LINE
  8
2
  6
CONTINUOUS
 62
               7
  5
1BC
 10
151.84173999999999
 20
117.20139
 30
0.0
 11
151.84173999999999
 21
121.24388999999999
 31
0.0
  0
LINE
  8
2
  6
CONTINUOUS
 62
               7
  5
1BD
 10
148.94174000000001
 20
121.24388999999999
 30
0.0
 11
148.94174000000001
 21
115.75888999999999
 31
0.0
  0
LINE
  8
2
  6
CONTINUOUS
 62
               7
  5
1BE
 10
148.94174000000001
 20
115.75888999999999
 30
0.0
 11
151.84173999999999
 21
115.75888999999999
 31
0.0
  0
LINE
  8
2
  6
CONTINUOUS
 62
               7
  5
1BF
 10
146.79174
 20
116.13388999999999
 30
0.0
 11
148.94174000000001
 21
116.13388999999999
 31
0.0
  0
LINE
  8
2
  6
CONTINUOUS
 62
               7
  5
1C0
 10
148.94174000000001
 20
121.24388999999999
 30
0.0
 11
151.84173999999999
 21
121.24388999999999
 31
0.0
  0
LINE
  8
2
  6
CONTINUOUS
 62
               7
  5
1C1
 10
146.79174
 20
120.89888999999999
 30
0.0
 11
148.94174000000001
 21
120.89888999999999
 31
0.0
  0
LINE
  8
2
  6
CONTINUOUS
 62
               7
  5
1C2
 10
146.69174000000001
 20
117.55139
 30
0.0
 11
146.69174000000001
 21
115.90139000000001
 31
0.0
  0
DIMENSION
  8
2
  6
CONTINUOUS
 62
               7
  5
1C3
  2
*D10
 10
160.24206000000001
 20
112.16431
 30
0.0
 11
156.34206
 21
112.93326
 31
0.0
 70
             128
 13
152.44206
 23
117.15139000000001
 33
0.0
 14
160.24206000000001
 24
116.70139
 34
0.0
  3
DSTYLE8
  0
LINE
  8
2
  6
CONTINUOUS
 62
               7
  5
1C4
 10
145.79174
 20
121.10138999999999
 30
0.0
 11
146.69174000000001
 21
121.10138999999999
 31
0.0
  0
LINE
  8
2
  6
CONTINUOUS
 62
               7
  5
1C5
 10
144.19174000000001
 20
119.45139
 30
0.0
 11
146.69174000000001
 21
119.45139
 31
0.0
  0
LINE
  8
2
  6
CONTINUOUS
 62
               7
  5
1C6
 10
145.79174
 20
119.57894
 30
0.0
 11
146.69174000000001
 21
119.57894
 31
0.0
  0
LINE
  8
2
  6
CONTINUOUS
 62
               7
  5
1C7
 10
145.79174
 20
115.90139000000001
 30
0.0
 11
146.69174000000001
 21
115.90139000000001
 31
0.0
  0
LINE
  8
2
  6
CONTINUOUS
 62
               7
  5
1C8
 10
145.79174
 20
117.42385
 30
0.0
 11
146.69174000000001
 21
117.42385
 31
0.0
  0
LINE
  8
2
  6
CONTINUOUS
 62
               7
  5
1C9
 10
144.19174000000001
 20
117.55139
 30
0.0
 11
146.69174000000001
 21
117.55139
 31
0.0
  0
LINE
  8
2
  6
CONTINUOUS
 62
               7
  5
1CA
 10
145.79174
 20
121.10138999999999
 30
0.0
 11
145.79174
 21
119.57894
 31
0.0
  0
LINE
  8
2
  6
CONTINUOUS
 62
               7
  5
1CB
 10
144.49173999999999
 20
120.95139
 30
0.0
 11
144.49173999999999
 21
119.54219999999999
 31
0.0
  0
LINE
  8
2
  6
CONTINUOUS
 62
               7
  5
1CC
 10
143.99173999999999
 20
120.88139
 30
0.0
 11
143.41674
 21
120.29139000000001
 31
0.0
  0
LINE
  8
2
  6
CONTINUOUS
 62
               7
  5
1CD
 10
144.19174000000001
 20
120.88139
 30
0.0
 11
144.19174000000001
 21
116.12139000000001
 31
0.0
  0
LINE
  8
2
  6
CONTINUOUS
 62
               7
  5
1CE
 10
143.99173999999999
 20
120.88139
 30
0.0
 11
143.99173999999999
 21
116.12139000000001
 31
0.0
  0
LINE
  8
2
  6
CONTINUOUS
 62
               7
  5
1CF
 10
138.59594999999999
 20
120.29139000000001
 30
0.0
 11
143.41674
 21
120.29139000000001
 31
0.0
  0
LINE
  8
2
  6
CONTINUOUS
 62
               7
  5
1D0
 10
138.59594999999999
 20
116.71138999999999
 30
0.0
 11
143.41674
 21
116.71138999999999
 31
0.0
  0
LINE
  8
2
  6
CONTINUOUS
 62
               7
  5
1D1
 10
137.54174
 20
119.44429
 30
0.0
 11
137.54174
 21
117.5585
 31
0.0
  0
ARC
  8
2
  6
CONTINUOUS
 62
               7
  5
1D2
 10
138.59594999999999
 20
117.71138999999999
 30
0.0
 40
1.0
 50
224.99996999999999
 51
270.0
  0
LINE
  8
2
  6
CONTINUOUS
 62
               7
  5
1D3
 10
137.68817999999999
 20
117.20495
 30
0.0
 11
137.88883999999999
 21
117.00429
 31
0.0
  0
ARC
  8
2
  6
CONTINUOUS
 62
               7
  5
1D4
 10
138.04174
 20
117.5585
 30
0.0
 40
0.5
 50
180.0
 51
224.99996999999999
  0
ARC
  8
2
  6
CONTINUOUS
 62
               7
  5
1D5
 10
138.59594999999999
 20
119.29139000000001
 30
0.0
 40
1.0
 50
90.0
 51
135.00003000000001
  0
LINE
  8
2
  6
CONTINUOUS
 62
               7
  5
1D6
 10
137.68817999999999
 20
119.79783999999999
 30
0.0
 11
137.88883999999999
 21
119.99850000000001
 31
0.0
  0
ARC
  8
2
  6
CONTINUOUS
 62
               7
  5
1D7
 10
138.04174
 20
119.44429
 30
0.0
 40
0.5
 50
135.00003000000001
 51
180.0
  0
LINE
  8
2
  6
CONTINUOUS
 62
               7
  5
1D8
 10
143.41674
 20
120.29139000000001
 30
0.0
 11
143.41674
 21
116.71138999999999
 31
0.0
  0
LINE
  8
2
  6
CONTINUOUS
 62
               7
  5
1D9
 10
143.99173999999999
 20
116.12139000000001
 30
0.0
 11
144.19174000000001
 21
116.12139000000001
 31
0.0
  0
LINE
  8
2
  6
CONTINUOUS
 62
               7
  5
1DA
 10
143.99173999999999
 20
116.12139000000001
 30
0.0
 11
143.41674
 21
116.71138999999999
 31
0.0
  0
LINE
  8
2
  6
CONTINUOUS
 62
               7
  5
1DB
 10
144.49173999999999
 20
117.46059
 30
0.0
 11
144.49173999999999
 21
116.05139
 31
0.0
  0
LINE
  8
2
  6
CONTINUOUS
 62
               7
  5
1DC
 10
145.79174
 20
117.42385
 30
0.0
 11
145.79174
 21
115.90139000000001
 31
0.0
  0
LINE
  8
2
  6
CONTINUOUS
 62
               7
  5
1DD
 10
144.49173999999999
 20
116.05139
 30
0.0
 11
145.79174
 21
115.90139000000001
 31
0.0
  0
LINE
  8
2
  6
CONTINUOUS
 62
               7
  5
1DE
 10
144.19174000000001
 20
116.35138999999999
 30
0.0
 11
144.49173999999999
 21
116.05139
 31
0.0
  0
LINE
  8
2
  6
CONTINUOUS
 62
               7
  5
1DF
 10
144.49173999999999
 20
117.46059
 30
0.0
 11
145.79174
 21
117.42385
 31
0.0
  0
LINE
  8
2
  6
CONTINUOUS
 62
               7
  5
1E0
 10
144.19174000000001
 20
117.55139
 30
0.0
 11
144.49173999999999
 21
117.46059
 31
0.0
  0
LINE
  8
2
  6
CONTINUOUS
 62
               7
  5
1E1
 10
144.49173999999999
 20
119.54219999999999
 30
0.0
 11
145.79174
 21
119.57894
 31
0.0
  0
LINE
  8
2
  6
CONTINUOUS
 62
               7
  5
1E2
 10
144.19174000000001
 20
119.45139
 30
0.0
 11
144.49173999999999
 21
119.54219999999999
 31
0.0
  0
LINE
  8
2
  6
CONTINUOUS
 62
               7
  5
1E3
 10
143.99173999999999
 20
120.88139
 30
0.0
 11
144.19174000000001
 21
120.88139
 31
0.0
  0
LINE
  8
2
  6
CONTINUOUS
 62
               7
  5
1E4
 10
144.49173999999999
 20
120.95139
 30
0.0
 11
145.79174
 21
121.10138999999999
 31
0.0
  0
LINE
  8
2
  6
CONTINUOUS
 62
               7
  5
1E5
 10
144.19174000000001
 20
120.65139000000001
 30
0.0
 11
144.49173999999999
 21
120.95139
 31
0.0
  0
LINE
  8
2
  6
CONTINUOUS
 62
               7
  5
1E6
 10
146.69174000000001
 20
121.10138999999999
 30
0.0
 11
146.69174000000001
 21
119.45139
 31
0.0
  0
LINE
  8
2
  6
CONTINUOUS
 62
               7
  5
1E7
 10
146.79174
 20
120.86888999999999
 30
0.0
 11
146.79174
 21
116.13388999999999
 31
0.0
  0
LINE
  8
2
  6
CONTINUOUS
 62
               7
  5
1E8
 10
146.69174000000001
 20
116.72139
 30
0.0
 11
146.79174
 21
116.72139
 31
0.0
  0
LINE
  8
2
  6
CONTINUOUS
 62
               7
  5
1E9
 10
146.69174000000001
 20
120.28139
 30
0.0
 11
146.79174
 21
120.28139
 31
0.0
  0
LINE
  8
2
  6
CONTINUOUS
 62
               7
  5
1EA
 10
146.69174000000001
 20
117.55139
 30
0.0
 11
146.69174000000001
 21
115.90139000000001
 31
0.0
  0
DIMENSION
  8
2
  6
CONTINUOUS
 62
               1
  5
1EB
  2
*D11
 10
137.54174
 20
107.42702
 30
0.0
 11
148.89189999999999
 21
107.97722
 31
0.0
 70
             128
  1
<> max
 13
160.24206000000001
 23
116.70139
 33
0.0
 14
137.54174
 24
117.5585
 34
0.0
  3
DSTYLE9
  0
DIMENSION
  8
2
  6
CONTINUOUS
 62
               1
  5
1EC
  2
*D12
 10
137.54174
 20
110.19168999999999
 30
0.0
 11
143.24173999999999
 21
110.74189
 31
0.0
 70
             128
 13
148.94174000000001
 23
115.75888999999999
 33
0.0
 14
137.54174
 24
117.5585
 34
0.0
  3
DSTYLE9
  0
DIMENSION
  8
2
  6
CONTINUOUS
 62
               1
  5
1ED
  2
*D13
 10
138.59594999999999
 20
113.90483999999999
 30
0.0
 11
140.15810999999999
 21
114.45504
 31
0.0
 70
             128
 13
137.54174
 23
117.5585
 33
0.0
 14
138.59594999999999
 24
116.71138999999999
 34
0.0
  3
DSTYLE9
  0
DIMENSION
  8
2
  6
CONTINUOUS
 62
               1
  5
1EE
  2
*D14
 10
143.41674
 20
112.65685000000001
 30
0.0
 11
140.47924
 21
113.20705
 31
0.0
 70
             128
 13
137.54174
 23
117.5585
 33
0.0
 14
143.41674
 24
116.71138999999999
 34
0.0
  3
DSTYLE9
  0
DIMENSION
  8
2
  6
CONTINUOUS
 62
               1
  5
1EF
  2
*D15
 10
141.00961000000001
 20
120.29139000000001
 30
0.0
 11
140.24065999999999
 21
123.91798
 31
0.0
 70
             128
  1
|<>
 13
138.59594999999999
 23
116.71138999999999
 33
0.0
 14
138.59594999999999
 24
120.29139000000001
 34
0.0
 50
90.0
  3
DSTYLE10
  0
CIRCLE
  8
2
  6
CONTINUOUS
 62
               1
  5
1F0
 10
138.59594999999999
 20
116.71138999999999
 30
0.0
 40
0.10236948
  0
INSERT
  8
2
  5
1F1
  2
*F0
 10
135.69400999999999
 20
114.97423999999999
 30
0.0
  0
LINE
  8
2
  6
CONTINUOUS
 62
               7
  5
1F2
 10
151.84173999999999
 20
117.20139
 30
0.0
 11
151.84173999999999
 21
115.75888999999999
 31
0.0
  0
TEXT
  8
1
  6
CONTINUOUS
 62
               7
  5
1F3
 10
282.30536000000001
 20
25.782668999999999
 30
0.0
 40
3.0
  1
5:1
 41
0.75
  0
TEXT
  8
1
  6
CONTINUOUS
 62
               7
  5
1F4
 10
282.57932
 20
12.558382
 30
0.0
 40
3.0
  1
1
 41
0.75
  0
TEXT
  8
1
  6
CONTINUOUS
 62
               7
  5
1F5
 10
287.86380000000003
 20
8.061985
 30
0.0
 40
3.0
  1
1
 41
0.75
  0
TEXT
  8
1
  6
CONTINUOUS
 62
               7
  5
1F6
 10
176.89379
 20
31.957318999999998
 30
0.0
 40
2.0
  1
21-JUN-02
 41
0.75
 72
               1
 11
170.14379
 21
31.957318999999998
 31
0.0
  0
TEXT
  8
1
  6
CONTINUOUS
 62
               7
  5
1F7
 10
185.07501999999999
 20
32.787511000000002
 30
0.0
 40
0.0
  1
AA
  0
TEXT
  8
1
  6
CONTINUOUS
 62
               7
  5
1F8
 10
183.19953000000001
 20
32.152180000000001
 30
0.0
 40
2.0
  1
CV
 41
0.75
  0
LINE
  8
2
  6
CONTINUOUS
 62
               7
  5
1F9
 10
146.24173999999999
 20
121.10138999999999
 30
0.0
 11
144.60163
 21
121.10138999999999
 31
0.0
  0
ENDSEC
  0
EOF
