0
SECTION
2
HEADER
9
$ACADVER
1
AC1009
9
$DWGCODEPAGE
3
ansi_1251
9
$INSBASE
10
0.
20
0.
30
0.
9
$EXTMIN
10
-.0000148500000137
20
-43.500014850000014
30
0.
9
$EXTMAX
10
297.00001485000001
20
253.50001485000001
30
0.
9
$LIMMIN
10
0.
20
0.
9
$LIMMAX
10
0.
20
0.
9
$ORTHOMODE
70
0
9
$REGENMODE
70
1
9
$FILLMODE
70
1
9
$QTEXTMODE
70
0
9
$MIRRTEXT
70
1
9
$DRAGMODE
70
2
9
$LTSCALE
40
1.
9
$OSMODE
70
0
9
$ATTMODE
70
1
9
$TEXTSIZE
40
.125
9
$TRACEWID
40
.05
9
$TEXTSTYLE
7
STANDARD
9
$CLAYER
8
104
9
$CELTYPE
6
CONTINUOUS
9
$CECOLOR
62
40
9
$DIMSCALE
40
1.
9
$DIMASZ
40
.125
9
$DIMEXO
40
.0625
9
$DIMDLI
40
.25
9
$DIMRND
40
0.
9
$DIMDLE
40
0.
9
$DIMEXE
40
.125
9
$DIMTP
40
.005
9
$DIMTM
40
-.005
9
$DIMTXT
40
3.
9
$DIMCEN
40
.09
9
$DIMTSZ
40
0.
9
$DIMTOL
70
0
9
$DIMLIM
70
0
9
$DIMTIH
70
1
9
$DIMTOH
70
1
9
$DIMSE1
70
0
9
$DIMSE2
70
0
9
$DIMTAD
70
0
9
$DIMZIN
70
0
9
$DIMBLK
1

9
$DIMASO
70
1
9
$DIMSHO
70
1
9
$DIMPOST
1

9
$DIMAPOST
1

9
$DIMALT
70
0
9
$DIMALTD
70
0
9
$DIMALTF
40
25.399999999999999
9
$DIMLFAC
40
1.
9
$DIMTOFL
70
1
9
$DIMTVP
40
0.
9
$DIMTIX
70
0
9
$DIMSOXD
70
0
9
$DIMSAH
70
0
9
$DIMBLK1
1

9
$DIMBLK2
1

9
$DIMSTYLE
2
DSTYLE1
9
$DIMCLRD
70
0
9
$DIMCLRE
70
0
9
$DIMCLRT
70
0
9
$DIMTFAC
40
1.
9
$DIMGAP
40
.0625
9
$LUNITS
70
2
9
$LUPREC
70
3
9
$AXISMODE
70
0
9
$AXISUNIT
10
0.
20
0.
9
$SKETCHINC
40
.1
9
$FILLETRAD
40
5.
9
$AUNITS
70
0
9
$AUPREC
70
1
9
$MENU
1
acad
9
$ELEVATION
40
0.
9
$PELEVATION
40
0.
9
$THICKNESS
40
0.
9
$LIMCHECK
70
0
9
$BLIPMODE
70
1
9
$CHAMFERA
40
10.
9
$CHAMFERB
40
10.
9
$SKPOLY
70
0
9
$TDCREATE
40
0.
9
$TDUPDATE
40
0.
9
$TDINDWG
40
0.
9
$TDUSRTIMER
40
0.
9
$USRTIMER
70
1
9
$ANGBASE
50
0.
9
$ANGDIR
70
0
9
$PDMODE
70
0
9
$PDSIZE
40
-.01
9
$PLINEWID
40
0.
9
$COORDS
70
0
9
$SPLFRAME
70
0
9
$SPLINETYPE
70
6
9
$SPLINESEGS
70
8
9
$ATTDIA
70
0
9
$ATTREQ
70
1
9
$HANDLING
70
0
9
$HANDSEED
5
1
9
$SURFTAB1
70
6
9
$SURFTAB2
70
6
9
$SURFTYPE
70
6
9
$SURFU
70
6
9
$SURFV
70
6
9
$UCSNAME
2

9
$UCSORG
10
0.
20
0.
30
0.
9
$UCSXDIR
10
1.
20
0.
30
0.
9
$UCSYDIR
10
0.
20
1.
30
0.
9
$PUCSNAME
2

9
$PUCSORG
10
0.
20
0.
30
0.
9
$PUCSXDIR
10
1.
20
0.
30
0.
9
$PUCSYDIR
10
0.
20
1.
30
0.
9
$USERI1
70
0
9
$USERI2
70
0
9
$USERI3
70
0
9
$USERI4
70
0
9
$USERI5
70
0
9
$USERR1
40
0.
9
$USERR2
40
0.
9
$USERR3
40
0.
9
$USERR4
40
0.
9
$USERR5
40
0.
9
$WORLDVIEW
70
1
9
$SHADEDGE
70
3
9
$SHADEDIF
70
70
9
$TILEMODE
70
0
9
$MAXACTVP
70
16
9
$PINSBASE
10
0.
20
0.
30
0.
9
$PLIMCHECK
70
0
9
$PEXTMIN
10
0.
20
0.
30
0.
9
$PEXTMAX
10
0.
20
0.
30
0.
9
$PLIMMIN
10
0.
20
0.
9
$PLIMMAX
10
297.
20
210.
9
$UNITMODE
70
0
9
$VISRETAIN
70
0
9
$PLINEGEN
70
1
9
$PSLTSCALE
70
0
9
$TREEDEPTH
70
3020
0
ENDSEC
0
SECTION
2
TABLES
0
TABLE
2
VPORT
70
1
0
VPORT
2
*ACTIVE
70
0
10
0.
20
0.
11
297.
21
210.
12
148.5
22
105.
13
0.
23
0.
14
1.
24
1.
15
0.
25
0.
16
0.
26
0.
36
1.
17
0.
27
0.
37
0.
40
210.
41
1.4142857
42
50.
43
0.
44
0.
50
0.
51
0.
71
0
72
1000
73
1
74
3
75
0
76
0
77
0
78
0
0
ENDTAB
0
TABLE
2
LTYPE
70
8
0
LTYPE
2
CONTINUOUS
70
64
3
Solid line
72
65
73
0
40
0.
0
LTYPE
2
HIDDENNEW0
70
64
3
_
72
65
73
3
40
4.5
49
1.5
49
-1.5
49
1.5
0
LTYPE
2
HIDDENNEW1
70
64
3
_
72
65
73
3
40
4.5
49
1.5
49
-1.5
49
1.5
0
LTYPE
2
HIDDEN
70
64
3
_
72
65
73
3
40
4.5
49
1.5
49
-1.5
49
1.5
0
LTYPE
2
CENTERLINE
70
64
3
_
72
65
73
5
40
30.
49
12.
49
-1.5
49
3.
49
-1.5
49
12.
0
LTYPE
2
PHANTOM
70
64
3
_
72
65
73
7
40
29.5
49
9.5
49
-1.5
49
3.
49
-1.5
49
3.
49
-1.5
49
9.5
0
LTYPE
2
SHORT_DASH
70
64
3
_
72
65
73
3
40
3.
49
.75
49
-1.5
49
.75
0
LTYPE
2
LONG_DASH
70
64
3
_
72
65
73
3
40
9.
49
2.25
49
-4.5
49
2.25
0
ENDTAB
0
TABLE
2
LAYER
70
5
0
LAYER
2
0
70
0
62
-7
6
CONTINUOUS
0
LAYER
2
1
70
0
62
7
6
CONTINUOUS
0
LAYER
2
2
70
0
62
7
6
CONTINUOUS
0
LAYER
2
DRAFTING_HIDDEN_ENTITIES
70
1
62
7
6
CONTINUOUS
0
LAYER
2
104
70
0
62
7
6
CONTINUOUS
0
ENDTAB
0
TABLE
2
STYLE
70
1
0
STYLE
2
STANDARD
70
64
40
0.
41
1.
50
0.
71
0
42
1.
3
monotxt.shx
4

0
ENDTAB
0
TABLE
2
VIEW
70
0
0
ENDTAB
0
TABLE
2
UCS
70
0
0
ENDTAB
0
TABLE
2
APPID
70
1
0
APPID
2
ACAD
70
0
0
ENDTAB
0
TABLE
2
DIMSTYLE
70
10
0
DIMSTYLE
2
DSTYLE1
70
0
3

4

5
0000
6
CONTINUOUS
7
STANDARD
40
1.
41
1.6666666999999999
42
0.
43
.38
44
1.5
45
.1
46
0.
47
.4
48
1.
71
1
72
0
73
0
74
0
75
0
76
0
77
1
78
3
140
1.6666666999999999
141
.09
142
0.
143
.039370079
144
1.
145
0.
146
1.
147
1.5
170
0
171
2
172
0
173
0
174
0
175
0
176
               0
177
               0
178
               0
0
DIMSTYLE
2
DSTYLE2
70
0
3

4

5
0000
6
CONTINUOUS
7
STANDARD
40
1.
41
1.6666666999999999
42
0.
43
.38
44
1.5
45
.1
46
0.
47
.4
48
1.
71
0
72
0
73
0
74
0
75
0
76
0
77
1
78
3
140
1.6666666999999999
141
.09
142
0.
143
.039370079
144
1.
145
0.
146
1.
147
1.5
170
0
171
2
172
0
173
0
174
0
175
0
176
               0
177
               0
178
               0
0
DIMSTYLE
2
DSTYLE3
70
0
3

4

5
0000
6
CONTINUOUS
7
STANDARD
40
1.
41
1.6666666999999999
42
0.
43
.38
44
1.5
45
.1
46
0.
47
0.
48
.25
71
1
72
0
73
0
74
0
75
0
76
0
77
1
78
3
140
1.6666666999999999
141
.09
142
0.
143
.039370079
144
1.
145
0.
146
1.
147
1.5
170
0
171
2
172
0
173
0
174
0
175
0
176
               0
177
               0
178
               0
0
DIMSTYLE
2
DSTYLE4
70
0
3

4

5
0000
6
CONTINUOUS
7
STANDARD
40
1.
41
1.6666666999999999
42
0.
43
.38
44
1.5
45
.01
46
0.
47
.4
48
1.
71
0
72
0
73
0
74
0
75
0
76
0
77
1
78
3
140
1.6666666999999999
141
.09
142
0.
143
.039370079
144
1.
145
0.
146
1.
147
1.5
170
0
171
2
172
0
173
0
174
0
175
0
176
               0
177
               0
178
               0
0
DIMSTYLE
2
DSTYLE5
70
0
3

4

5
0000
6
CONTINUOUS
7
STANDARD
40
1.
41
1.6666666999999999
42
0.
43
.38
44
1.5
45
.1
46
0.
47
.3
48
1.
71
1
72
0
73
0
74
0
75
0
76
0
77
1
78
3
140
1.6666666999999999
141
.09
142
0.
143
.039370079
144
1.
145
0.
146
1.
147
1.5
170
0
171
2
172
0
173
0
174
0
175
0
176
               0
177
               0
178
               0
0
DIMSTYLE
2
DSTYLE6
70
0
3

4

5
0000
6
CONTINUOUS
7
STANDARD
40
1.
41
1.6666666999999999
42
0.
43
.38
44
1.5
45
.1
46
0.
47
.15
48
1.
71
1
72
0
73
0
74
0
75
0
76
0
77
1
78
3
140
1.6666666999999999
141
.09
142
0.
143
.039370079
144
1.
145
0.
146
1.
147
1.5
170
0
171
2
172
0
173
0
174
0
175
0
176
               0
177
               0
178
               0
0
DIMSTYLE
2
DSTYLE7
70
0
3

4

5
0000
6
CONTINUOUS
7
STANDARD
40
1.
41
1.6666666999999999
42
0.
43
.38
44
1.5
45
.1
46
0.
47
.2
48
0.
71
1
72
0
73
0
74
0
75
0
76
0
77
1
78
3
140
1.6666666999999999
141
.09
142
0.
143
.039370079
144
1.
145
0.
146
1.
147
1.5
170
0
171
2
172
0
173
0
174
0
175
0
176
               0
177
               0
178
               0
0
DIMSTYLE
2
DSTYLE8
70
0
3

4

5
0000
6
CONTINUOUS
7
STANDARD
40
1.
41
1.6666666999999999
42
1.5
43
.38
44
1.5
45
.1
46
0.
47
.1
48
1.
71
1
72
0
73
1
74
1
75
0
76
0
77
1
78
3
140
1.6666666999999999
141
.09
142
0.
143
.039370079
144
1.
145
0.
146
1.
147
1.5
170
0
171
2
172
1
173
0
174
0
175
0
176
               0
177
               0
178
               0
0
DIMSTYLE
2
DSTYLE9
70
0
3

4

5
0000
6
CONTINUOUS
7
STANDARD
40
1.
41
1.6666666999999999
42
0.
43
.38
44
1.5
45
.1
46
0.
47
0.
48
.2
71
1
72
0
73
0
74
0
75
0
76
0
77
1
78
3
140
1.6666666999999999
141
.09
142
0.
143
.039370079
144
1.
145
0.
146
1.
147
1.5
170
0
171
2
172
0
173
0
174
0
175
0
176
               0
177
               0
178
               0
0
DIMSTYLE
2
DSTYLE10
70
0
3

4

5
0000
6
CONTINUOUS
7
STANDARD
40
1.
41
1.6666666999999999
42
0.
43
.38
44
1.5
45
0.
46
0.
47
0.
48
.2
71
1
72
0
73
0
74
0
75
0
76
0
77
1
78
3
140
1.6666666999999999
141
.09
142
0.
143
.039370079
144
1.
145
0.
146
1.
147
1.5
170
0
171
2
172
0
173
0
174
0
175
0
176
               0
177
               0
178
               0
0
ENDTAB
0
ENDSEC
0
SECTION
2
BLOCKS
0
BLOCK
8
0
2
_AH12
70
64
10
0.
20
0.
30
0.
3
_AH
0
LINE
8
0
6
CONTINUOUS
62
0
10
0.
20
0.
30
0.
11
1.
21
0.
31
0.
0
LINE
8
0
6
CONTINUOUS
62
0
10
0.
20
0.
30
0.
11
-1.
21
0.
31
0.
0
ENDBLK
8
0
0
BLOCK
8
0
2
_AH1
70
64
10
0.
20
0.
30
0.
3
_AH1
0
SOLID
8
0
6
CONTINUOUS
62
0
10
0.
20
0.
30
0.
11
1.
21
-.166667
31
0.
12
1.
22
.166667
32
0.
13
0.
23
0.
33
0.
0
ENDBLK
8
0
0
BLOCK
8
0
2
_AH2
70
64
10
0.
20
0.
30
0.
3
_AH2
0
ENDBLK
8
0
0
BLOCK
8
0
2
_AH3
70
64
10
0.
20
0.
30
0.
3
_AH3
0
CIRCLE
8
0
6
CONTINUOUS
62
0
10
0.
20
0.
30
0.
40
.166667
0
LINE
8
0
6
CONTINUOUS
62
0
10
0.
20
0.
30
0.
11
-1.
21
0.
31
0.
0
ENDBLK
8
0
0
BLOCK
8
0
2
_AH4
70
64
10
0.
20
0.
30
0.
3
_AH4
0
CIRCLE
8
0
6
CONTINUOUS
62
0
10
0.
20
0.
30
0.
40
.083335
0
LINE
8
0
6
CONTINUOUS
62
0
10
0.
20
0.
30
0.
11
-1.
21
0.
31
0.
0
ENDBLK
8
0
0
BLOCK
8
0
2
_AH5
70
64
10
0.
20
0.
30
0.
3
_AH5
0
LINE
8
0
6
CONTINUOUS
62
0
10
-.166667
20
-.166667
30
0.
11
.166667
21
-.166667
31
0.
0
LINE
8
0
6
CONTINUOUS
62
0
10
.166667
20
-.166667
30
0.
11
.166667
21
.166667
31
0.
0
LINE
8
0
6
CONTINUOUS
62
0
10
.166667
20
.166667
30
0.
11
-.166667
21
.166667
31
0.
0
LINE
8
0
6
CONTINUOUS
62
0
10
-.166667
20
.166667
30
0.
11
-.166667
21
-.166667
31
0.
0
LINE
8
0
6
CONTINUOUS
62
0
10
0.
20
0.
30
0.
11
-1.
21
0.
31
0.
0
ENDBLK
8
0
0
BLOCK
8
0
2
_AH6
70
64
10
0.
20
0.
30
0.
3
_AH6
0
SOLID
8
0
6
CONTINUOUS
62
0
10
-.166667
20
-.166667
30
0.
11
.166667
21
-.166667
31
0.
12
-.166667
22
.166667
32
0.
13
.166667
23
.166667
33
0.
0
LINE
8
0
6
CONTINUOUS
62
0
10
0.
20
0.
30
0.
11
-1.
21
0.
31
0.
0
ENDBLK
8
0
0
BLOCK
8
0
2
_AH7
70
64
10
0.
20
0.
30
0.
3
_AH7
0
LINE
8
0
6
CONTINUOUS
62
0
10
-.5
20
-.5
30
0.
11
.5
21
.5
31
0.
0
LINE
8
0
6
CONTINUOUS
62
0
10
0.
20
0.
30
0.
11
-1.
21
0.
31
0.
0
ENDBLK
8
0
0
BLOCK
8
0
2
_AH8
70
64
10
0.
20
0.
30
0.
3
_AH8
0
ARC
8
0
6
CONTINUOUS
62
0
10
-.166667
20
0.
30
0.
40
.166667
50
270.
51
360.
0
ARC
8
0
6
CONTINUOUS
62
0
10
.166667
20
0.
30
0.
40
.166667
50
90.
51
180.
0
LINE
8
0
6
CONTINUOUS
62
0
10
0.
20
0.
30
0.
11
-1.
21
0.
31
0.
0
ENDBLK
8
0
0
BLOCK
8
0
2
_AH9
70
64
10
0.
20
0.
30
0.
3
_AH9
0
LINE
8
0
6
CONTINUOUS
62
0
10
0.
20
0.
30
0.
11
-1.
21
-.166667
31
0.
0
LINE
8
0
6
CONTINUOUS
62
0
10
-1.
20
-.166667
30
0.
11
-1.
21
.166667
31
0.
0
LINE
8
0
6
CONTINUOUS
62
0
10
-1.
20
.166667
30
0.
11
0.
21
0.
31
0.
0
ENDBLK
8
0
0
BLOCK
8
0
2
*X10
70
65
10
0.
20
0.
30
0.
3
*X10
0
LINE
8
1
6
CONTINUOUS
62
1
10
-.093111717
20
-.093111717
30
0.
11
.093111717
21
.093111717
31
0.
0
LINE
8
1
6
CONTINUOUS
62
1
10
-.43262687
20
-.14978416
30
0.
11
.093111717
21
.37595443
31
0.
0
LINE
8
1
6
CONTINUOUS
62
1
10
-.6575497
20
-.091864276
30
0.
11
.093111717
21
.65879714
31
0.
0
LINE
8
1
6
CONTINUOUS
62
1
10
-.8177748500000001
20
.030753286
30
0.
11
-.48425595
21
.36427219
31
0.
0
LINE
8
1
6
CONTINUOUS
62
1
10
-.32737511
20
.52115303
30
0.
11
-.098924169
21
.74960397
31
0.
0
LINE
8
1
6
CONTINUOUS
62
1
10
-.94247243
20
.18889842
30
0.
11
-.60547779
21
.52589306
31
0.
0
LINE
8
1
6
CONTINUOUS
62
1
10
-.39874699
20
.73262386
30
0.
11
-.38176688
21
.74960397
31
0.
0
LINE
8
1
6
CONTINUOUS
62
1
10
-.035311601
20
1.0960592
30
0.
11
.093111717
21
1.2244826
31
0.
0
LINE
8
1
6
CONTINUOUS
62
1
10
-1.5275323999999999
20
-.11331885
30
0.
11
-1.3256011999999999
21
.0886124
31
0.
0
LINE
8
1
6
CONTINUOUS
62
1
10
-1.0375951999999999
20
.37661833
30
0.
11
-.60688828
21
.80732528
31
0.
0
LINE
8
1
6
CONTINUOUS
62
1
10
-.22574142
20
1.1884721
30
0.
11
.093111717
21
1.5073253
31
0.
0
LINE
8
1
6
CONTINUOUS
62
1
10
-1.8438064999999999
20
-.1467502
30
0.
11
-1.3397718000000001
21
.35728445
31
0.
0
LINE
8
1
6
CONTINUOUS
62
1
10
-1.0961993999999999
20
.6008568600000001
30
0.
11
-.07911793
21
1.6179383000000001
31
0.
0
LINE
8
1
6
CONTINUOUS
62
1
10
-1.9445782
20
.035320795
30
0.
11
-1.3467918999999999
21
.63310709
31
0.
0
LINE
8
1
6
CONTINUOUS
62
1
10
-1.0985128
20
.8813862
30
0.
11
-.33474803
21
1.645151
31
0.
0
LINE
8
1
6
CONTINUOUS
62
1
10
-2.3761375
20
-.11339576
30
0.
11
-2.1754894999999999
21
.087252209
31
0.
0
LINE
8
1
6
CONTINUOUS
62
1
10
-2.0352945
20
.22744719
30
0.
11
-1.3460749000000001
21
.91666679
31
0.
0
LINE
8
1
6
CONTINUOUS
62
1
10
-.92257615
20
1.3401654999999999
30
0.
11
-.68758046
21
1.5751611999999999
31
0.
0
LINE
8
1
6
CONTINUOUS
62
1
10
-2.6917895000000001
20
-.14620507
30
0.
11
-2.1896955999999999
21
.35588885
31
0.
0
LINE
8
1
6
CONTINUOUS
62
1
10
-2.1260108
20
.41957359
30
0.
11
-1.3369285
21
1.2086558999999999
31
0.
0
LINE
8
1
6
CONTINUOUS
62
1
10
-2.9740731
20
-.14564602
30
0.
11
-2.9586874000000001
21
-.13026025
31
0.
0
LINE
8
1
6
CONTINUOUS
62
1
10
-2.6846755999999998
20
.14375149
30
0.
11
-1.843178
21
.98524911
31
0.
0
LINE
8
1
6
CONTINUOUS
62
1
10
-1.8196847
20
1.0087424
30
0.
11
-1.3185260999999999
21
1.5099009999999999
31
0.
0
LINE
8
1
6
CONTINUOUS
62
1
10
-3.2231485000000002
20
-.11187867
30
0.
11
-2.9784324999999998
21
.13283735
31
0.
0
LINE
8
1
6
CONTINUOUS
62
1
10
-2.6710943
20
.44017552
30
0.
11
-1.9338986
21
1.1773712000000001
31
0.
0
LINE
8
1
6
CONTINUOUS
62
1
10
-1.8304461999999999
20
1.2808236
30
0.
11
-1.4965757
21
1.6146942
31
0.
0
LINE
8
1
6
CONTINUOUS
62
1
10
-3.5032456000000001
20
-.10913307
30
0.
11
-2.9914504000000002
21
.4026621
31
0.
0
LINE
8
1
6
CONTINUOUS
62
1
10
-2.6663296999999999
20
.72778288
30
0.
11
-2.0246192000000001
21
1.3694933
31
0.
0
LINE
8
1
6
CONTINUOUS
62
1
10
-1.8480911
20
1.5460214999999999
30
0.
11
-1.7659743999999999
21
1.6281382
31
0.
0
LINE
8
1
6
CONTINUOUS
62
1
10
-3.4816818
20
.19527343
30
0.
11
-2.9972265999999999
21
.67972869
31
0.
0
LINE
8
1
6
CONTINUOUS
62
1
10
-2.6696274999999998
20
1.0073278000000001
30
0.
11
-2.1153398000000001
21
1.5616154
31
0.
0
LINE
8
1
6
CONTINUOUS
62
1
10
-3.4696728999999999
20
.49012507
30
0.
11
-2.9951584000000002
21
.96463956
31
0.
0
LINE
8
1
6
CONTINUOUS
62
1
10
-2.6803523999999999
20
1.2794456000000001
30
0.
11
-2.3449645000000001
21
1.6148334
31
0.
0
LINE
8
1
6
CONTINUOUS
62
1
10
-4.3619430000000001
20
-.11930229
30
0.
11
-4.1507965999999996
21
.091844064
31
0.
0
LINE
8
1
6
CONTINUOUS
62
1
10
-3.4663415
20
.77629919
30
0.
11
-2.9845335
21
1.2581072
31
0.
0
LINE
8
1
6
CONTINUOUS
62
1
10
-2.6979630999999999
20
1.5446776
30
0.
11
-2.6147339999999999
21
1.6279067
31
0.
0
LINE
8
1
6
CONTINUOUS
62
1
10
-4.6740652000000003
20
-.14858181
30
0.
11
-4.1648835000000002
21
.36059994
31
0.
0
LINE
8
1
6
CONTINUOUS
62
1
10
-3.4709558999999999
20
1.0545275000000001
30
0.
11
-2.9644993999999998
21
1.5609839999999999
31
0.
0
LINE
8
1
6
CONTINUOUS
62
1
10
-4.6593606000000003
20
.14896547
30
0.
11
-4.1718130999999996
21
.63651306
31
0.
0
LINE
8
1
6
CONTINUOUS
62
1
10
-3.4828983
20
1.3254277999999999
30
0.
11
-3.1966568999999998
21
1.6116691999999999
31
0.
0
LINE
8
1
6
CONTINUOUS
62
1
10
-4.6459393000000002
20
.44522951
30
0.
11
-4.1709978000000003
21
.9201710400000001
31
0.
0
LINE
8
1
6
CONTINUOUS
62
1
10
-3.8840450999999998
20
1.2071236999999999
30
0.
11
-3.7809598000000002
21
1.3102091
31
0.
0
LINE
8
1
6
CONTINUOUS
62
1
10
-3.5016419000000001
20
1.5895269000000001
30
0.
11
-3.4549295999999998
21
1.6362393
31
0.
0
LINE
8
1
6
CONTINUOUS
62
1
10
-5.4930988999999997
20
-.11908737
30
0.
11
-5.3358267000000001
21
.038184826
31
0.
0
LINE
8
1
6
CONTINUOUS
62
1
10
-4.6413203999999997
20
.73269117
30
0.
11
-4.1617439000000003
21
1.2122675999999999
31
0.
0
LINE
8
1
6
CONTINUOUS
62
1
10
-4.1563492999999996
20
1.2176623
30
0.
11
-3.7684448000000001
21
1.6055667
31
0.
0
LINE
8
1
6
CONTINUOUS
62
1
10
-5.8069652999999999
20
-.15011104
30
0.
11
-5.4192866999999998
21
.23756754
31
0.
0
LINE
8
1
6
CONTINUOUS
62
1
10
-4.6447519000000002
20
1.0121023
30
0.
11
-4.0209472999999996
21
1.6359068999999999
31
0.
0
LINE
8
1
6
CONTINUOUS
62
1
10
-5.8740826999999998
20
.065614285
30
0.
11
-5.5027467000000003
21
.43695025
31
0.
0
LINE
8
1
6
CONTINUOUS
62
1
10
-4.7239594
20
1.2157374999999999
30
0.
11
-4.3107784999999996
21
1.6289184999999999
31
0.
0
LINE
8
1
6
CONTINUOUS
62
1
10
-6.3413031000000002
20
-.11876346
30
0.
11
-6.1261124000000002
21
.096427323
31
0.
0
LINE
8
1
6
CONTINUOUS
62
1
10
-5.9540793000000001
20
.26846041
30
0.
11
-5.5862067
21
.63633297
31
0.
0
LINE
8
1
6
CONTINUOUS
62
1
10
-5.0206255999999998
20
1.2019141
30
0.
11
-4.5923629000000004
21
1.6301768000000001
31
0.
0
LINE
8
1
6
CONTINUOUS
62
1
10
-6.6021910000000004
20
-.096808644
30
0.
11
-6.1400800999999996
21
.36530233
31
0.
0
LINE
8
1
6
CONTINUOUS
62
1
10
-6.0457825999999999
20
.45959975
30
0.
11
-5.3069164999999998
21
1.1984659
31
0.
0
LINE
8
1
6
CONTINUOUS
62
1
10
-5.0264562000000002
20
1.4789262000000001
30
0.
11
-4.8663642999999999
21
1.6390180999999999
31
0.
0
LINE
8
1
6
CONTINUOUS
62
1
10
-6.9333371000000001
20
-.14511196
30
0.
11
-6.9135941000000001
21
-.12536903
31
0.
0
LINE
8
1
6
CONTINUOUS
62
1
10
-6.5810269000000003
20
.20719817
30
0.
11
-5.3659005000000004
21
1.4223246
31
0.
0
LINE
8
1
6
CONTINUOUS
62
1
10
-7.1961943000000002
20
-.12512651
30
0.
11
-6.9733650000000003
21
.09770282
31
0.
0
LINE
8
1
6
CONTINUOUS
62
1
10
-6.5693793999999999
20
.5016883600000001
30
0.
11
-6.0714638000000001
21
.99960397
31
0.
0
LINE
8
1
6
CONTINUOUS
62
1
10
-5.9149729999999998
20
1.1560949
30
0.
11
-5.5011967000000004
21
1.5698711000000001
31
0.
0
LINE
8
1
6
CONTINUOUS
62
1
10
-7.4179314999999999
20
-.064021016
30
0.
11
-7.0331359000000004
21
.32077467
31
0.
0
LINE
8
1
6
CONTINUOUS
62
1
10
-6.5663777999999997
20
.78753273
30
0.
11
-5.7070965999999999
21
1.6468138999999999
31
0.
0
LINE
8
1
6
CONTINUOUS
62
1
10
-7.4371492999999997
20
.19960397
30
0.
11
-7.0929067000000003
21
.54384652
31
0.
0
LINE
8
1
6
CONTINUOUS
62
1
10
-6.5712953000000001
20
1.0654579
30
0.
11
-5.9970886999999999
21
1.6396645000000001
31
0.
0
LINE
8
1
6
CONTINUOUS
62
1
10
-8.0490104000000002
20
-.12941445
30
0.
11
-7.8965354999999997
21
.023060427
31
0.
0
LINE
8
1
6
CONTINUOUS
62
1
10
-7.7199920000000004
20
.19960397
30
0.
11
-7.1526775999999996
21
.76691837
31
0.
0
LINE
8
1
6
CONTINUOUS
62
1
10
-6.5835182999999997
20
1.3360776999999999
30
0.
11
-6.2927030999999998
21
1.6268929000000001
31
0.
0
LINE
8
1
6
CONTINUOUS
62
1
10
-8.3407458000000005
20
-.13830711
30
0.
11
-7.6028346999999998
21
.59960397
31
0.
0
LINE
8
1
6
CONTINUOUS
62
1
10
-7.5483389000000001
20
.65409979
30
0.
11
-7.2124484000000004
21
.98999022
31
0.
0
LINE
8
1
6
CONTINUOUS
62
1
10
-6.6025229999999997
20
1.5999156999999999
30
0.
11
-6.5621029000000002
21
1.6403357999999999
31
0.
0
LINE
8
1
6
CONTINUOUS
62
1
10
-8.3231476999999998
20
.1621337
30
0.
11
-7.7413771999999996
21
.74390419
31
0.
0
LINE
8
1
6
CONTINUOUS
62
1
10
-7.6081057000000003
20
.87717572
30
0.
11
-7.2722192999999997
21
1.2130620999999999
31
0.
0
LINE
8
1
6
CONTINUOUS
62
1
10
-8.8936115000000004
20
-.1254874
30
0.
11
-8.7226499000000004
21
.045474172
31
0.
0
LINE
8
1
6
CONTINUOUS
62
1
10
-8.2196225999999992
20
.54850152
30
0.
11
-7.3319901999999999
21
1.4361339
31
0.
0
LINE
8
1
6
CONTINUOUS
62
1
10
-9.1526022000000005
20
-.10163543
30
0.
11
-8.7379362999999994
21
.31303048
31
0.
0
LINE
8
1
6
CONTINUOUS
62
1
10
-8.1160975000000004
20
.93486934
30
0.
11
-7.4058333999999997
21
1.6451334
31
0.
0
LINE
8
1
6
CONTINUOUS
62
1
10
-9.4793002000000008
20
-.1454907
30
0.
11
-9.4591166999999992
21
-.12530717
31
0.
0
LINE
8
1
6
CONTINUOUS
62
1
10
-9.1312817000000006
20
.20252779
30
0.
11
-8.7461591999999992
21
.58765035
31
0.
0
LINE
8
1
6
CONTINUOUS
62
1
10
-8.0125723000000004
20
1.3212371999999999
30
0.
11
-7.7187858
21
1.6150237000000001
31
0.
0
LINE
8
1
6
CONTINUOUS
62
1
10
-9.7432938999999994
20
-.12664169
30
0.
11
-9.4787379999999999
21
.13791424
31
0.
0
LINE
8
1
6
CONTINUOUS
62
1
10
-9.1194927999999997
20
.49715943
30
0.
11
-8.7467471000000003
21
.86990517
31
0.
0
LINE
8
1
6
CONTINUOUS
62
1
10
-9.8940315999999999
20
.0054633222
30
0.
11
-9.4916230000000006
21
.40787192
31
0.
0
LINE
8
1
6
CONTINUOUS
62
1
10
-9.3998910000000002
20
.49960397
30
0.
11
-8.7390266000000008
21
1.1604683
31
0.
0
LINE
8
1
6
CONTINUOUS
62
1
10
-9.8761411999999993
20
.30619642
30
0.
11
-9.1827337
21
.99960397
31
0.
0
LINE
8
1
6
CONTINUOUS
62
1
10
-9.1211675999999997
20
1.0611699999999999
30
0.
11
-8.7221954999999998
21
1.4601421999999999
31
0.
0
LINE
8
1
6
CONTINUOUS
62
1
10
-9.8674593999999995
20
.59772101
30
0.
11
-9.4655763999999998
21
.99960397
31
0.
0
LINE
8
1
6
CONTINUOUS
62
1
10
-9.1332806000000009
20
1.3318996999999999
30
0.
11
-8.8366734999999998
21
1.6285069000000001
31
0.
0
LINE
8
1
6
CONTINUOUS
62
1
10
-9.8671673000000002
20
.88085582
30
0.
11
-9.4842431000000005
21
1.2637799999999999
31
0.
0
LINE
8
1
6
CONTINUOUS
62
1
10
-9.1521830000000008
20
1.5958401
30
0.
11
-9.1083648000000004
21
1.6396583
31
0.
0
LINE
8
1
6
CONTINUOUS
62
1
10
-9.8745788999999995
20
1.1562869
30
0.
11
-9.4640205000000002
21
1.5668453
31
0.
0
LINE
8
1
6
CONTINUOUS
62
1
10
-9.8891126000000007
20
1.4245958999999999
30
0.
11
-9.6897140999999998
21
1.6239943999999999
31
0.
0
ENDBLK
8
0
0
BLOCK
8
0
2
*X11
70
65
10
0.
20
0.
30
0.
3
*X11
0
LINE
8
1
6
CONTINUOUS
62
1
10
-.16610837
20
-.16610837
30
0.
11
.16610837
21
.16610837
31
0.
0
LINE
8
1
6
CONTINUOUS
62
1
10
-.50031576
20
-.21747305
30
0.
11
-.4037288
21
-.12088609
31
0.
0
LINE
8
1
6
CONTINUOUS
62
1
10
-.20428932
20
.078553391
30
0.
11
-.1871311
21
.095711614
31
0.
0
LINE
8
1
6
CONTINUOUS
62
1
10
.12088609
20
.4037288
30
0.
11
.21747305
21
.50031576
31
0.
0
LINE
8
1
6
CONTINUOUS
62
1
10
-.71875371
20
-.15306829
30
0.
11
-.64342335
21
-.077737928
31
0.
0
LINE
8
1
6
CONTINUOUS
62
1
10
-.35594627
20
.20973915
30
0.
11
-.28140172
21
.2842837
31
0.
0
LINE
8
1
6
CONTINUOUS
62
1
10
.077737928
20
.64342335
30
0.
11
.15306829
21
.71875371
31
0.
0
LINE
8
1
6
CONTINUOUS
62
1
10
-.8838634600000001
20
-.035335324
30
0.
11
-.8131491400000001
21
.035378994
31
0.
0
LINE
8
1
6
CONTINUOUS
62
1
10
-.62855339
20
.21997475
30
0.
11
-.52855339
21
.31997475
31
0.
0
LINE
8
1
6
CONTINUOUS
62
1
10
-.46997475
20
.37855339
30
0.
11
-.36957046
21
.47895767
31
0.
0
LINE
8
1
6
CONTINUOUS
62
1
10
-.27895767
20
.56957046
30
0.
11
-.19367865
21
.65484948
31
0.
0
LINE
8
1
6
CONTINUOUS
62
1
10
-.035378994
20
.8131491400000001
30
0.
11
.035335324
21
.8838634600000001
31
0.
0
LINE
8
1
6
CONTINUOUS
62
1
10
-1.0043706999999999
20
.12700011
30
0.
11
-.9296151
21
.20175575
31
0.
0
LINE
8
1
6
CONTINUOUS
62
1
10
-.62855339
20
.5028174600000001
30
0.
11
-.52855339
21
.60281746
31
0.
0
LINE
8
1
6
CONTINUOUS
62
1
10
-.45281746
20
.67855339
30
0.
11
-.35429472
21
.77707613
31
0.
0
LINE
8
1
6
CONTINUOUS
62
1
10
-.20175575
20
.9296151
30
0.
11
-.12700011
21
1.0043706999999999
31
0.
0
LINE
8
1
6
CONTINUOUS
62
1
10
-1.0726994999999999
20
.3415141
30
0.
11
-.97850687
21
.43570669
31
0.
0
LINE
8
1
6
CONTINUOUS
62
1
10
-.43570669
20
.97850687
30
0.
11
-.3415141
21
1.0726994999999999
31
0.
0
LINE
8
1
6
CONTINUOUS
62
1
10
-1.0352665000000001
20
.66178979
30
0.
11
-.66178979
21
1.0352665000000001
31
0.
0
ENDBLK
8
0
0
BLOCK
8
0
2
A4-QUER
70
0
10
0.
20
0.
30
0.
3
A4-QUER
0
LINE
8
1
6
CONTINUOUS
62
3
10
0.
20
210.
30
0.
11
0.
21
0.
31
0.
0
LINE
8
1
6
CONTINUOUS
62
3
10
0.
20
0.
30
0.
11
297.
21
0.
31
0.
0
LINE
8
1
6
CONTINUOUS
62
3
10
297.
20
0.
30
0.
11
297.
21
210.
31
0.
0
LINE
8
1
6
CONTINUOUS
62
3
10
297.
20
210.
30
0.
11
0.
21
210.
31
0.
0
LINE
8
1
6
CONTINUOUS
62
2
10
292.
20
195.
30
0.
11
10.
21
195.
31
0.
0
LINE
8
1
6
CONTINUOUS
62
2
10
10.
20
5.
30
0.
11
292.
21
5.
31
0.
0
LINE
8
1
6
CONTINUOUS
62
2
10
10.
20
5.
30
0.
11
10.
21
195.
31
0.
0
LINE
8
1
6
CONTINUOUS
62
2
10
292.
20
5.
30
0.
11
292.
21
190.
31
0.
0
LINE
8
1
6
CONTINUOUS
62
3
10
292.
20
190.
30
0.
11
10.
21
190.
31
0.
0
LINE
8
1
6
CONTINUOUS
62
3
10
5.
20
143.75
30
0.
11
10.
21
143.75
31
0.
0
LINE
8
1
6
CONTINUOUS
62
3
10
5.
20
97.5
30
0.
11
10.
21
97.5
31
0.
0
LINE
8
1
6
CONTINUOUS
62
3
10
5.
20
51.25
30
0.
11
10.
21
51.25
31
0.
0
LINE
8
1
6
CONTINUOUS
62
3
10
234.59999999999999
20
190.
30
0.
11
234.59999999999999
21
195.
31
0.
0
LINE
8
1
6
CONTINUOUS
62
3
10
177.19999999999999
20
190.
30
0.
11
177.19999999999999
21
195.
31
0.
0
LINE
8
1
6
CONTINUOUS
62
3
10
119.8
20
190.
30
0.
11
119.8
21
195.
31
0.
0
LINE
8
1
6
CONTINUOUS
62
3
10
148.5
20
208.
30
0.
11
148.5
21
200.
31
0.
0
TEXT
8
1
6
CONTINUOUS
62
1
10
7.5
20
500000000000000030000000000000000000000000000000000000000000000000000000000000000000000000000000000000000000000000000000000000000000000000000000000000000000000000000000000000000000000000000000000000000000000000000000000000000000000000000000000000000000000000000000000000000000000000000000000000000000.
30
0.
40
2.
1

41
.5
72
1
11
7.5
21
28.125
31
0.
73
2
0
TEXT
8
1
6
CONTINUOUS
62
1
10
129.02916999999999
20
196.50815
30
0.
40
2.
1
Alle Rechte vorbehalten/
41
.5
72
1
11
136.62916999999999
21
197.45814999999999
31
0.
73
2
0
TEXT
8
1
6
CONTINUOUS
62
1
10
153.31489106160672
20
196.58310999999998
30
0.
40
2.
1
All rights reserved
41
.5
51
14.999999999999998
72
1
11
159.33668
21
197.53810999999999
31
0.
73
2
0
LINE
8
1
6
CONTINUOUS
62
2
10
292.
20
190.
30
0.
11
292.
21
195.
31
0.
0
POINT
8
1
6
CONTINUOUS
62
1
10
148.5
20
105.
30
0.
0
LINE
8
1
6
CONTINUOUS
62
3
10
5.
20
190.
30
0.
11
5.
21
5.
31
0.
0
LINE
8
1
6
CONTINUOUS
62
3
10
5.
20
195.
30
0.
11
5.
21
190.
31
0.
0
LINE
8
1
6
CONTINUOUS
62
3
10
62.399999999999999
20
190.
30
0.
11
62.399999999999999
21
195.
31
0.
0
LINE
8
1
6
CONTINUOUS
62
3
10
10.
20
5.
30
0.
11
5.
21
5.
31
0.
0
LINE
8
1
6
CONTINUOUS
62
3
10
10.
20
195.
30
0.
11
5.
21
195.
31
0.
0
TEXT
8
1
6
CONTINUOUS
62
1
10
262.55000000000001
20
191.07499999999999
30
0.
40
3.
1
1
72
1
11
263.30000000000001
21
192.5
31
0.
73
2
0
TEXT
8
1
6
CONTINUOUS
62
1
10
204.84995428681225
20
191.07499999999999
30
0.
40
3.
1
2
72
1
11
205.90000000000001
21
192.5
31
0.
73
2
0
TEXT
8
1
6
CONTINUOUS
62
1
10
147.44999999999999
20
191.07499999999999
30
0.
40
3.
1
3
72
1
11
148.5
21
192.5
31
0.
73
2
0
TEXT
8
1
6
CONTINUOUS
62
1
10
89.899999999999991
20
191.07499999999999
30
0.
40
3.
1
4
72
1
11
91.099999999999994
21
192.5
31
0.
73
2
0
TEXT
8
1
6
CONTINUOUS
62
1
10
35.150000000000006
20
191.07499999999999
30
0.
40
3.
1
5
72
1
11
36.200000000000003
21
192.5
31
0.
73
2
0
TEXT
8
1
6
CONTINUOUS
62
1
10
6.1500000000000004
20
26.699999999999999
30
0.
40
3.
1
A
72
1
11
7.5
21
28.125
31
0.
73
2
0
TEXT
8
1
6
CONTINUOUS
62
1
10
6.2999999999999989
20
72.950000000000003
30
0.
40
3.
1
B
72
1
11
7.5
21
74.375
31
0.
73
2
0
TEXT
8
1
6
CONTINUOUS
62
1
10
6.4500000000000002
20
119.2
30
0.
40
3.
1
C
72
1
11
7.5
21
120.625
31
0.
73
2
0
TEXT
8
1
6
CONTINUOUS
62
1
10
6.2999999999999998
20
167.94999999999999
30
0.
40
3.
1
D
72
1
11
7.5
21
169.375
31
0.
73
2
0
ENDBLK
8
0
0
BLOCK
8
0
2
*F13
70
65
10
0.
20
0.
30
0.
3
*F13
0
LINE
8
2
6
CONTINUOUS
62
6
10
0.
20
-1.6666666999999999
30
0.
11
0.
21
1.6666666999999999
31
0.
0
TEXT
8
2
6
CONTINUOUS
62
6
10
.83333333
20
-.83333333
30
0.
40
1.6666666999999999
1
B
41
.75
0
LINE
8
2
6
CONTINUOUS
62
6
10
2.9166666999999999
20
1.6666666999999999
30
0.
11
2.9166666999999999
21
-1.6666666999999999
31
0.
0
LINE
8
2
6
CONTINUOUS
62
6
10
0.
20
-1.6666666999999999
30
0.
11
2.9166666999999999
21
-1.6666666999999999
31
0.
0
LINE
8
2
6
CONTINUOUS
62
6
10
0.
20
1.6666666999999999
30
0.
11
2.9166666999999999
21
1.6666666999999999
31
0.
0
LINE
8
2
6
CONTINUOUS
62
6
10
2.9166666999999999
20
0.
30
0.
11
5.4166667000000004
21
0.
31
0.
0
LINE
8
2
6
CONTINUOUS
62
6
10
5.4166667000000004
20
0.
30
0.
11
9.1586327999999995
21
0.
31
0.
0
LINE
8
2
6
CONTINUOUS
62
6
10
9.1586327999999995
20
0.
30
0.
11
10.825298999999999
21
-.83333333
31
0.
0
LINE
8
2
6
CONTINUOUS
62
6
10
10.825298999999999
20
-.83333333
30
0.
11
10.825298999999999
21
.83333333
31
0.
0
LINE
8
2
6
CONTINUOUS
62
6
10
10.825298999999999
20
.83333333
30
0.
11
9.1586327999999995
21
0.
31
0.
0
ENDBLK
8
0
0
BLOCK
8
0
2
*F14
70
65
10
0.
20
0.
30
0.
3
*F14
0
LINE
8
2
6
CONTINUOUS
62
7
10
0.
20
0.
30
0.
11
0.
21
-4.6168177000000004
31
0.
0
LINE
8
2
6
CONTINUOUS
62
7
10
0.
20
-4.6168177000000004
30
0.
11
.33333333
21
-2.6168176999999999
31
0.
0
LINE
8
2
6
CONTINUOUS
62
7
10
0.
20
-4.6168177000000004
30
0.
11
-.33333333
21
-2.6168176999999999
31
0.
0
LINE
8
2
6
CONTINUOUS
62
7
10
.33333333
20
-2.6168176999999999
30
0.
11
-.33333333
21
-2.6168176999999999
31
0.
0
ENDBLK
8
0
0
BLOCK
8
0
2
*F15
70
65
10
0.
20
0.
30
0.
3
*F15
0
LINE
8
2
6
CONTINUOUS
62
6
10
0.
20
0.
30
0.
11
0.
21
3.3333333000000001
31
0.
0
LINE
8
2
6
CONTINUOUS
62
6
10
1.3333333000000001
20
1.6666666999999999
30
0.
11
4.6666667000000004
21
1.6666666999999999
31
0.
0
LINE
8
2
6
CONTINUOUS
62
6
10
1.75
20
2.5
30
0.
11
4.25
21
2.5
31
0.
0
LINE
8
2
6
CONTINUOUS
62
6
10
1.75
20
.83333333
30
0.
11
4.25
21
.83333333
31
0.
0
LINE
8
2
6
CONTINUOUS
62
6
10
6.
20
3.3333333000000001
30
0.
11
6.
21
0.
31
0.
0
LINE
8
2
6
CONTINUOUS
62
6
10
0.
20
0.
30
0.
11
15.583333
21
0.
31
0.
0
LINE
8
2
6
CONTINUOUS
62
6
10
0.
20
3.3333333000000001
30
0.
11
15.583333
21
3.3333333000000001
31
0.
0
TEXT
8
2
6
CONTINUOUS
62
6
10
6.8333332999999996
20
.83333333
30
0.
40
1.6666666999999999
1
0,25
41
.75
0
LINE
8
2
6
CONTINUOUS
62
6
10
12.666667
20
3.3333333000000001
30
0.
11
12.666667
21
0.
31
0.
0
TEXT
8
2
6
CONTINUOUS
62
6
10
13.5
20
.83333333
30
0.
40
1.6666666999999999
1
A
41
.75
0
LINE
8
2
6
CONTINUOUS
62
6
10
15.583333
20
3.3333333000000001
30
0.
11
15.583333
21
0.
31
0.
0
ENDBLK
8
0
0
BLOCK
8
0
2
*F16
70
65
10
0.
20
0.
30
0.
3
*F16
0
LINE
8
2
6
CONTINUOUS
62
6
10
0.
20
0.
30
0.
11
3.8796317999999999
21
0.
31
0.
0
LINE
8
2
6
CONTINUOUS
62
6
10
3.8796317999999999
20
0.
30
0.
11
1.8796318000000001
21
.333334
31
0.
0
LINE
8
2
6
CONTINUOUS
62
6
10
3.8796317999999999
20
0.
30
0.
11
1.8796318000000001
21
-.333334
31
0.
0
LINE
8
2
6
CONTINUOUS
62
6
10
1.8796318000000001
20
.333334
30
0.
11
1.8796318000000001
21
-.333334
31
0.
0
ENDBLK
8
0
0
BLOCK
8
0
2
*F17
70
65
10
0.
20
0.
30
0.
3
*F17
0
LINE
8
2
6
CONTINUOUS
62
6
10
0.
20
0.
30
0.
11
0.
21
3.3333333000000001
31
0.
0
LINE
8
2
6
CONTINUOUS
62
6
10
1.3333333000000001
20
1.6666666999999999
30
0.
11
4.6666667000000004
21
1.6666666999999999
31
0.
0
LINE
8
2
6
CONTINUOUS
62
6
10
1.75
20
2.5
30
0.
11
4.25
21
2.5
31
0.
0
LINE
8
2
6
CONTINUOUS
62
6
10
1.75
20
.83333333
30
0.
11
4.25
21
.83333333
31
0.
0
LINE
8
2
6
CONTINUOUS
62
6
10
6.
20
3.3333333000000001
30
0.
11
6.
21
0.
31
0.
0
LINE
8
2
6
CONTINUOUS
62
6
10
0.
20
0.
30
0.
11
15.583333
21
0.
31
0.
0
LINE
8
2
6
CONTINUOUS
62
6
10
0.
20
3.3333333000000001
30
0.
11
15.583333
21
3.3333333000000001
31
0.
0
TEXT
8
2
6
CONTINUOUS
62
6
10
6.8333332999999996
20
.83333333
30
0.
40
1.6666666999999999
1
0,25
41
.75
0
LINE
8
2
6
CONTINUOUS
62
6
10
12.666667
20
3.3333333000000001
30
0.
11
12.666667
21
0.
31
0.
0
TEXT
8
2
6
CONTINUOUS
62
6
10
13.5
20
.83333333
30
0.
40
1.6666666999999999
1
A
41
.75
0
LINE
8
2
6
CONTINUOUS
62
6
10
15.583333
20
3.3333333000000001
30
0.
11
15.583333
21
0.
31
0.
0
ENDBLK
8
0
0
BLOCK
8
0
2
*F18
70
65
10
0.
20
0.
30
0.
3
*F18
0
LINE
8
2
6
CONTINUOUS
62
7
10
0.
20
0.
30
0.
11
0.
21
-3.5384657000000002
31
0.
0
LINE
8
2
6
CONTINUOUS
62
7
10
0.
20
-3.5384657000000002
30
0.
11
.33333333
21
-1.5384656999999999
31
0.
0
LINE
8
2
6
CONTINUOUS
62
7
10
0.
20
-3.5384657000000002
30
0.
11
-.33333333
21
-1.5384656999999999
31
0.
0
LINE
8
2
6
CONTINUOUS
62
7
10
.33333333
20
-1.5384656999999999
30
0.
11
-.33333333
21
-1.5384656999999999
31
0.
0
ENDBLK
8
0
0
BLOCK
8
0
2
*F19
70
65
10
0.
20
0.
30
0.
3
*F19
0
LINE
8
2
6
CONTINUOUS
62
6
10
0.
20
-1.6666666999999999
30
0.
11
0.
21
1.6666666999999999
31
0.
0
TEXT
8
2
6
CONTINUOUS
62
6
10
.83333333
20
-.83333333
30
0.
40
1.6666666999999999
1
A
41
.75
0
LINE
8
2
6
CONTINUOUS
62
6
10
2.9166666999999999
20
1.6666666999999999
30
0.
11
2.9166666999999999
21
-1.6666666999999999
31
0.
0
LINE
8
2
6
CONTINUOUS
62
6
10
0.
20
-1.6666666999999999
30
0.
11
2.9166666999999999
21
-1.6666666999999999
31
0.
0
LINE
8
2
6
CONTINUOUS
62
6
10
0.
20
1.6666666999999999
30
0.
11
2.9166666999999999
21
1.6666666999999999
31
0.
0
LINE
8
2
6
CONTINUOUS
62
6
10
1.4583333000000001
20
-1.6666666999999999
30
0.
11
1.4583333000000001
21
-4.1666667000000004
31
0.
0
LINE
8
2
6
CONTINUOUS
62
6
10
1.4583333000000001
20
-4.1666667000000004
30
0.
11
1.4583333000000001
21
-3.0735918999999998
31
0.
0
LINE
8
2
6
CONTINUOUS
62
6
10
1.4583333000000001
20
-3.0735918999999998
30
0.
11
.625
21
-4.7402585999999998
31
0.
0
LINE
8
2
6
CONTINUOUS
62
6
10
.625
20
-4.7402585999999998
30
0.
11
2.2916666999999999
21
-4.7402585999999998
31
0.
0
LINE
8
2
6
CONTINUOUS
62
6
10
2.2916666999999999
20
-4.7402585999999998
30
0.
11
1.4583333000000001
21
-3.0735918999999998
31
0.
0
ENDBLK
8
0
0
BLOCK
8
0
2
*F20
70
65
10
0.
20
0.
30
0.
3
*F20
0
LINE
8
2
6
CONTINUOUS
62
6
10
0.
20
0.
30
0.
11
0.
21
3.3333333000000001
31
0.
0
LINE
8
2
6
CONTINUOUS
62
6
10
1.3333333000000001
20
1.6666666999999999
30
0.
11
4.6666667000000004
21
1.6666666999999999
31
0.
0
LINE
8
2
6
CONTINUOUS
62
6
10
1.75
20
2.5
30
0.
11
4.25
21
2.5
31
0.
0
LINE
8
2
6
CONTINUOUS
62
6
10
1.75
20
.83333333
30
0.
11
4.25
21
.83333333
31
0.
0
LINE
8
2
6
CONTINUOUS
62
6
10
6.
20
3.3333333000000001
30
0.
11
6.
21
0.
31
0.
0
LINE
8
2
6
CONTINUOUS
62
6
10
0.
20
0.
30
0.
11
15.583333
21
0.
31
0.
0
LINE
8
2
6
CONTINUOUS
62
6
10
0.
20
3.3333333000000001
30
0.
11
15.583333
21
3.3333333000000001
31
0.
0
TEXT
8
2
6
CONTINUOUS
62
6
10
6.8333332999999996
20
.83333333
30
0.
40
1.6666666999999999
1
0,25
41
.75
0
LINE
8
2
6
CONTINUOUS
62
6
10
12.666667
20
3.3333333000000001
30
0.
11
12.666667
21
0.
31
0.
0
TEXT
8
2
6
CONTINUOUS
62
6
10
13.5
20
.83333333
30
0.
40
1.6666666999999999
1
B
41
.75
0
LINE
8
2
6
CONTINUOUS
62
6
10
15.583333
20
3.3333333000000001
30
0.
11
15.583333
21
0.
31
0.
0
ENDBLK
8
0
0
BLOCK
8
0
2
*T21
70
65
10
0.
20
0.
30
0.
3
*T21
0
TEXT
8
1
6
CONTINUOUS
62
1
10
-4.
20
-.9500000000000001
30
0.
40
2.
1
All Dim. in mm
41
.5
72
1
11
0.
21
0.
31
0.
73
2
0
TEXT
8
1
6
CONTINUOUS
62
1
10
-5.2000000000000002
20
-4.950000000000002
30
0.
40
2.
1
Orig. Size DIN A 4
41
.5
72
1
11
0.
21
-4.
31
0.
73
2
0
ENDBLK
8
0
0
BLOCK
8
0
2
*T22
70
65
10
0.
20
0.
30
0.
3
*T22
0
TEXT
8
1
6
CONTINUOUS
62
1
10
0.
20
0.
30
0.
40
3.
1
HARTING EURL
41
.75
0
TEXT
8
1
6
CONTINUOUS
62
1
10
0.
20
-4.5
30
0.
40
3.
1
F-95972 Paris
41
.75
0
ENDBLK
8
0
0
BLOCK
8
0
2
*T23
70
65
10
0.
20
0.
30
0.
3
*T23
0
TEXT
8
1
6
CONTINUOUS
62
1
10
-9.8999999999999986
20
0.
30
0.
40
3.
1
D-Sub, female,
41
.75
72
1
11
0.
21
0.
31
0.
0
TEXT
8
1
6
CONTINUOUS
62
1
10
-15.021562499999998
20
-4.5
30
0.
40
3.
1
3W3 without contacts,
41
.75
72
1
11
0.
21
-4.5
31
0.
0
TEXT
8
1
6
CONTINUOUS
62
1
10
-13.840312499999998
20
-9.
30
0.
40
3.
1
with tin plated shell.
41
.75
72
1
11
0.
21
-9.
31
0.
0
ENDBLK
8
0
0
BLOCK
8
0
2
_AH11
70
0
10
0.
20
0.
30
0.
3
_AH11
0
LINE
8
0
6
CONTINUOUS
62
0
10
-1.
20
.166667
30
0.
11
0.
21
0.
31
0.
0
LINE
8
0
6
CONTINUOUS
62
0
10
0.
20
0.
30
0.
11
-1.
21
-.166667
31
0.
0
LINE
8
0
6
CONTINUOUS
62
0
10
-1.
20
.166667
30
0.
11
-1.
21
-.166667
31
0.
0
LINE
8
0
6
CONTINUOUS
62
0
10
0.
20
0.
30
0.
11
-1.
21
0.
31
0.
0
ENDBLK
8
0
0
BLOCK
8
0
2
_AH21
70
0
10
0.
20
0.
30
0.
3
_AH21
0
LINE
8
0
6
CONTINUOUS
62
0
10
-1.
20
.166667
30
0.
11
0.
21
0.
31
0.
0
LINE
8
0
6
CONTINUOUS
62
0
10
0.
20
0.
30
0.
11
-1.
21
-.166667
31
0.
0
LINE
8
0
6
CONTINUOUS
62
0
10
0.
20
0.
30
0.
11
-1.
21
0.
31
0.
0
ENDBLK
8
0
0
BLOCK
8
0
2
*D26
70
65
10
0.
20
0.
30
0.
3
*D26
0
LINE
8
2
6
CONTINUOUS
62
6
10
93.405315999999999
20
150.84362999999999
30
0.
11
83.288872999999995
21
150.84362999999999
31
0.
0
LINE
8
2
6
CONTINUOUS
62
6
10
93.405315999999999
20
138.34362999999999
30
0.
11
83.288872999999995
21
138.34362999999999
31
0.
0
LINE
8
2
6
CONTINUOUS
62
6
10
84.288872999999995
20
150.84362999999999
30
0.
11
84.288872999999995
21
144.70001999999999
31
0.
0
LINE
8
2
6
CONTINUOUS
62
6
10
84.288872999999995
20
138.34362999999999
30
0.
11
84.288872999999995
21
144.70001999999999
31
0.
0
TEXT
8
2
6
CONTINUOUS
62
6
10
83.288206000000002
20
140.11669000000001
30
0.
40
1.6666666999999999
1
12,5
50
90.
41
.75
0
TEXT
8
2
6
CONTINUOUS
62
6
10
83.079873000000006
20
145.53335000000001
30
0.
40
1.25
1
%%p0,4
50
90.
41
.75
0
INSERT
8
2
62
6
2
_AH11
10
84.288872999999995
20
150.84362999999999
30
0.
41
1.6666666999999999
42
1.6666666999999999
50
90.
43
1.6666666999999999
0
INSERT
8
2
62
6
2
_AH11
10
84.288872999999995
20
138.34362999999999
30
0.
41
1.6666666999999999
42
1.6666666999999999
50
270.
43
1.6666666999999999
0
ENDBLK
8
0
0
BLOCK
8
0
2
*D27
70
65
10
0.
20
0.
30
0.
3
*D27
0
LINE
8
2
6
CONTINUOUS
62
6
10
99.055318
20
122.12212
30
0.
11
81.086190999999999
21
122.12212
31
0.
0
LINE
8
2
6
CONTINUOUS
62
6
10
91.905317999999994
20
115.72212
30
0.
11
81.086190999999999
21
115.72212
31
0.
0
LINE
8
2
6
CONTINUOUS
62
6
10
82.086190999999999
20
115.72212
30
0.
11
82.086190999999999
21
122.12212
31
0.
0
LINE
8
2
6
CONTINUOUS
62
6
10
82.086190999999999
20
115.72212
30
0.
11
82.086190999999999
21
108.98103
31
0.
0
TEXT
8
2
6
CONTINUOUS
62
6
10
81.085524000000007
20
109.98103
30
0.
40
1.6666666999999999
1
6.3
50
90.
41
.75
0
INSERT
8
2
62
6
2
_AH11
10
82.086190999999999
20
122.12212
30
0.
41
1.6666666999999999
42
1.6666666999999999
50
90.
43
1.6666666999999999
0
INSERT
8
2
62
6
2
_AH11
10
82.086190999999999
20
115.72212
30
0.
41
1.6666666999999999
42
1.6666666999999999
50
270.
43
1.6666666999999999
0
ENDBLK
8
0
0
BLOCK
8
0
2
*D28
70
65
10
0.
20
0.
30
0.
3
*D28
0
LINE
8
2
6
CONTINUOUS
62
6
10
92.074268000000004
20
84.804694999999995
30
0.
11
92.074268000000004
21
102.18608999999999
31
0.
0
LINE
8
2
6
CONTINUOUS
62
6
10
131.17427000000001
20
84.804693999999998
30
0.
11
131.17427000000001
21
102.18608999999999
31
0.
0
LINE
8
2
6
CONTINUOUS
62
6
10
92.074268000000004
20
101.18608999999999
30
0.
11
111.62427
21
101.18608999999999
31
0.
0
LINE
8
2
6
CONTINUOUS
62
6
10
131.17427000000001
20
101.18608999999999
30
0.
11
111.62427
21
101.18608999999999
31
0.
0
TEXT
8
2
6
CONTINUOUS
62
6
10
107.04093
20
102.18676000000001
30
0.
40
1.6666666999999999
1
39,1
41
.75
0
TEXT
8
2
6
CONTINUOUS
62
6
10
112.4576
20
102.39509
30
0.
40
1.25
1
%%p0,4
41
.75
0
INSERT
8
2
62
6
2
_AH11
10
92.074268000000004
20
101.18608999999999
30
0.
41
1.6666666999999999
42
1.6666666999999999
50
180.
43
1.6666666999999999
0
INSERT
8
2
62
6
2
_AH11
10
131.17427000000001
20
101.18608999999999
30
0.
41
1.6666666999999999
42
1.6666666999999999
43
1.6666666999999999
0
ENDBLK
8
0
0
BLOCK
8
0
2
*D29
70
65
10
0.
20
0.
30
0.
3
*D29
0
LINE
8
2
6
CONTINUOUS
62
6
10
176.11571000000001
20
149.93979999999999
30
0.
11
176.11571000000001
21
154.96863999999999
31
0.
0
LINE
8
2
6
CONTINUOUS
62
6
10
182.11571000000001
20
147.03980000000001
30
0.
11
182.11571000000001
21
154.96863999999999
31
0.
0
LINE
8
2
6
CONTINUOUS
62
6
10
182.11571000000001
20
153.96863999999999
30
0.
11
176.11571000000001
21
153.96863999999999
31
0.
0
LINE
8
2
6
CONTINUOUS
62
6
10
182.11571000000001
20
153.96863999999999
30
0.
11
193.16019
21
153.96863999999999
31
0.
0
TEXT
8
2
6
CONTINUOUS
62
6
10
183.30602999999999
20
155.69846999999999
30
0.
40
1.6666666999999999
1
6.3
41
.75
0
TEXT
8
2
6
CONTINUOUS
62
6
10
187.47269
20
156.84431000000001
30
0.
40
1.25
1

41
.75
0
TEXT
8
2
6
CONTINUOUS
62
6
10
187.47269
20
154.96931000000001
30
0.
40
1.25
1
-0,25
41
.75
0
INSERT
8
2
62
6
2
_AH11
10
176.11571000000001
20
153.96863999999999
30
0.
41
1.6666666999999999
42
1.6666666999999999
50
180.
43
1.6666666999999999
0
INSERT
8
2
62
6
2
_AH11
10
182.11571000000001
20
153.96863999999999
30
0.
41
1.6666666999999999
42
1.6666666999999999
43
1.6666666999999999
0
ENDBLK
8
0
0
BLOCK
8
0
2
*D30
70
65
10
0.
20
0.
30
0.
3
*D30
0
LINE
8
2
6
CONTINUOUS
62
6
10
111.62427
20
87.189110999999997
30
0.
11
111.62427
21
90.615909000000002
31
0.
0
LINE
8
2
6
CONTINUOUS
62
6
10
118.48427
20
83.054693999999998
30
0.
11
118.48427
21
90.615909000000002
31
0.
0
LINE
8
2
6
CONTINUOUS
62
6
10
118.48427
20
89.615909000000002
30
0.
11
111.62427
21
89.615909000000002
31
0.
0
LINE
8
2
6
CONTINUOUS
62
6
10
111.62427
20
89.615909000000002
30
0.
11
102.41958
21
89.615909000000002
31
0.
0
LINE
8
2
6
CONTINUOUS
62
6
10
102.41958
20
90.616574999999997
30
0.
11
109.41958
21
90.616574999999997
31
0.
0
LINE
8
2
6
CONTINUOUS
62
6
10
109.41958
20
90.616574999999997
30
0.
11
109.41958
21
94.283242000000001
31
0.
0
LINE
8
2
6
CONTINUOUS
62
6
10
109.41958
20
94.283242000000001
30
0.
11
102.41958
21
94.283242000000001
31
0.
0
LINE
8
2
6
CONTINUOUS
62
6
10
102.41958
20
94.283242000000001
30
0.
11
102.41958
21
90.616574999999997
31
0.
0
TEXT
8
2
6
CONTINUOUS
62
6
10
103.41958
20
91.616574999999997
30
0.
40
1.6666666999999999
1
6,86
41
.75
0
INSERT
8
2
62
6
2
_AH11
10
111.62427
20
89.615909000000002
30
0.
41
1.6666666999999999
42
1.6666666999999999
50
180.
43
1.6666666999999999
0
INSERT
8
2
62
6
2
_AH11
10
118.48427
20
89.615909000000002
30
0.
41
1.6666666999999999
42
1.6666666999999999
43
1.6666666999999999
0
ENDBLK
8
0
0
BLOCK
8
0
2
*D31
70
65
10
0.
20
0.
30
0.
3
*D31
0
LINE
8
2
6
CONTINUOUS
62
6
10
97.874268000000001
20
83.854693999999995
30
0.
11
97.874268000000001
21
97.270827999999995
31
0.
0
LINE
8
2
6
CONTINUOUS
62
6
10
125.37427
20
83.854693999999995
30
0.
11
125.37427
21
97.270827999999995
31
0.
0
LINE
8
2
6
CONTINUOUS
62
6
10
97.874268000000001
20
96.270827999999995
30
0.
11
111.62427
21
96.270827999999995
31
0.
0
LINE
8
2
6
CONTINUOUS
62
6
10
125.37427
20
96.270827999999995
30
0.
11
111.62427
21
96.270827999999995
31
0.
0
TEXT
8
2
6
CONTINUOUS
62
6
10
107.04093
20
97.271495000000002
30
0.
40
1.6666666999999999
1
27,5
41
.75
0
TEXT
8
2
6
CONTINUOUS
62
6
10
112.4576
20
97.479827999999998
30
0.
40
1.25
1
%%p0,3
41
.75
0
INSERT
8
2
62
6
2
_AH11
10
97.874268000000001
20
96.270827999999995
30
0.
41
1.6666666999999999
42
1.6666666999999999
50
180.
43
1.6666666999999999
0
INSERT
8
2
62
6
2
_AH11
10
125.37427
20
96.270827999999995
30
0.
41
1.6666666999999999
42
1.6666666999999999
43
1.6666666999999999
0
ENDBLK
8
0
0
BLOCK
8
0
2
*D32
70
65
10
0.
20
0.
30
0.
3
*D32
0
LINE
8
2
6
CONTINUOUS
62
6
10
94.974267999999995
20
77.054693999999998
30
0.
11
94.974267999999995
21
67.278802999999996
31
0.
0
LINE
8
2
6
CONTINUOUS
62
6
10
128.27427
20
77.054693999999998
30
0.
11
128.27427
21
67.278802999999996
31
0.
0
LINE
8
2
6
CONTINUOUS
62
6
10
94.974267999999995
20
68.278802999999996
30
0.
11
111.62427
21
68.278802999999996
31
0.
0
LINE
8
2
6
CONTINUOUS
62
6
10
128.27427
20
68.278802999999996
30
0.
11
111.62427
21
68.278802999999996
31
0.
0
TEXT
8
2
6
CONTINUOUS
62
6
10
106.57218
20
69.279469000000006
30
0.
40
1.6666666999999999
1
33,3
41
.75
0
TEXT
8
2
6
CONTINUOUS
62
6
10
111.98885
20
69.487803
30
0.
40
1.25
1
%%p0,15
41
.75
0
INSERT
8
2
62
6
2
_AH11
10
94.974267999999995
20
68.278802999999996
30
0.
41
1.6666666999999999
42
1.6666666999999999
50
180.
43
1.6666666999999999
0
INSERT
8
2
62
6
2
_AH11
10
128.27427
20
68.278802999999996
30
0.
41
1.6666666999999999
42
1.6666666999999999
43
1.6666666999999999
0
ENDBLK
8
0
0
BLOCK
8
0
2
*D33
70
65
10
0.
20
0.
30
0.
3
*D33
0
LINE
8
2
6
CONTINUOUS
62
6
10
175.21571
20
137.43979999999999
30
0.
11
175.21571
21
132.30672999999999
31
0.
0
LINE
8
2
6
CONTINUOUS
62
6
10
176.11571000000001
20
137.43979999999999
30
0.
11
176.11571000000001
21
132.30672999999999
31
0.
0
LINE
8
2
6
CONTINUOUS
62
6
10
171.21571
20
133.30672999999999
30
0.
11
176.11571000000001
21
133.30672999999999
31
0.
0
LINE
8
2
6
CONTINUOUS
62
6
10
176.11571000000001
20
133.30672999999999
30
0.
11
187.10057
21
133.30672999999999
31
0.
0
TEXT
8
2
6
CONTINUOUS
62
6
10
178.18391
20
135.03656000000001
30
0.
40
1.6666666999999999
1
0.8
41
.75
0
TEXT
8
2
6
CONTINUOUS
62
6
10
182.35057
20
136.1824
30
0.
40
1.25
1
+0,2
41
.75
0
TEXT
8
2
6
CONTINUOUS
62
6
10
182.35057
20
134.3074
30
0.
40
1.25
1

41
.75
0
INSERT
8
2
62
6
2
_AH11
10
175.21571
20
133.30672999999999
30
0.
41
1.6666666999999999
42
1.6666666999999999
43
1.6666666999999999
0
INSERT
8
2
62
6
2
_AH11
10
176.11571000000001
20
133.30672999999999
30
0.
41
1.6666666999999999
42
1.6666666999999999
50
180.
43
1.6666666999999999
0
ENDBLK
8
0
0
BLOCK
8
0
2
*D34
70
65
10
0.
20
0.
30
0.
3
*D34
0
LINE
8
2
6
CONTINUOUS
62
6
10
94.974267999999995
20
80.054637999999997
30
0.
11
98.082012000000006
21
77.204690999999997
31
0.
0
LINE
8
2
6
CONTINUOUS
62
6
10
94.974267999999995
20
80.054637999999997
30
0.
11
86.173140000000004
21
88.125686000000002
31
0.
0
LINE
8
2
6
CONTINUOUS
62
6
10
96.116640000000004
20
79.007029000000003
30
0.
11
97.532741000000001
21
78.085294000000005
31
0.
0
LINE
8
2
6
CONTINUOUS
62
6
10
96.116640000000004
20
79.007029000000003
30
0.
11
97.157253999999995
21
77.675841000000005
31
0.
0
LINE
8
2
6
CONTINUOUS
62
6
10
97.532741000000001
20
78.085294000000005
30
0.
11
97.157253999999995
21
77.675841000000005
31
0.
0
LINE
8
2
6
CONTINUOUS
62
6
10
73.673140000000004
20
88.125686000000002
30
0.
11
86.173140000000004
21
88.125686000000002
31
0.
0
TEXT
8
2
6
CONTINUOUS
62
6
10
74.673140000000004
20
89.125686000000002
30
0.
40
1.6666666999999999
1
%%c3,1
41
.75
0
TEXT
8
2
6
CONTINUOUS
62
6
10
80.089805999999996
20
89.334018999999998
30
0.
40
1.25
1
%%p0,1
41
.75
0
INSERT
8
2
62
6
2
_AH11
10
93.831895000000003
20
81.102247000000006
30
0.
41
1.6666666999999999
42
1.6666666999999999
50
317.47771999999998
43
1.6666666999999999
0
INSERT
8
2
62
6
2
_AH11
10
96.116640000000004
20
79.007029000000003
30
0.
41
1.6666666999999999
42
1.6666666999999999
50
137.47772000000001
43
1.6666666999999999
0
ENDBLK
8
0
0
BLOCK
8
0
2
*D35
70
65
10
0.
20
0.
30
0.
3
*D35
0
LINE
8
2
6
CONTINUOUS
62
6
10
99.155317999999994
20
141.10551000000001
30
0.
11
99.155317999999994
21
131.38847999999999
31
0.
0
LINE
8
2
6
CONTINUOUS
62
6
10
123.75532
20
141.20081999999999
30
0.
11
123.75532
21
131.38847999999999
31
0.
0
LINE
8
2
6
CONTINUOUS
62
6
10
99.155317999999994
20
132.38847999999999
30
0.
11
111.45532
21
132.38847999999999
31
0.
0
LINE
8
2
6
CONTINUOUS
62
6
10
123.75532
20
132.38847999999999
30
0.
11
111.45532
21
132.38847999999999
31
0.
0
TEXT
8
2
6
CONTINUOUS
62
6
10
106.87197999999999
20
134.11831000000001
30
0.
40
1.6666666999999999
1
24,6
41
.75
0
TEXT
8
2
6
CONTINUOUS
62
6
10
112.28865
20
135.26414
30
0.
40
1.25
1

41
.75
0
TEXT
8
2
6
CONTINUOUS
62
6
10
112.28865
20
133.38914
30
0.
40
1.25
1
-0,2
41
.75
0
INSERT
8
2
62
6
2
_AH11
10
99.155317999999994
20
132.38847999999999
30
0.
41
1.6666666999999999
42
1.6666666999999999
50
180.
43
1.6666666999999999
0
INSERT
8
2
62
6
2
_AH11
10
123.75532
20
132.38847999999999
30
0.
41
1.6666666999999999
42
1.6666666999999999
43
1.6666666999999999
0
ENDBLK
8
0
0
BLOCK
8
0
2
*D36
70
65
10
0.
20
0.
30
0.
3
*D36
0
LINE
8
2
6
CONTINUOUS
62
6
10
120.77634
20
148.49363
30
0.
11
137.94566
21
148.49363
31
0.
0
LINE
8
2
6
CONTINUOUS
62
6
10
121.30531999999999
20
140.69363000000001
30
0.
11
137.94566
21
140.69363000000001
31
0.
0
LINE
8
2
6
CONTINUOUS
62
6
10
136.94566
20
140.69363000000001
30
0.
11
136.94566
21
148.49363
31
0.
0
LINE
8
2
6
CONTINUOUS
62
6
10
136.94566
20
140.69363000000001
30
0.
11
136.94566
21
130.67338000000001
31
0.
0
TEXT
8
2
6
CONTINUOUS
62
6
10
135.21582000000001
20
131.67338000000001
30
0.
40
1.6666666999999999
1
8
50
90.
41
.75
0
TEXT
8
2
6
CONTINUOUS
62
6
10
134.06998999999999
20
133.34004999999999
30
0.
40
1.25
1

50
90.
41
.75
0
TEXT
8
2
6
CONTINUOUS
62
6
10
135.94498999999999
20
133.34004999999999
30
0.
40
1.25
1
-0,2
50
90.
41
.75
0
INSERT
8
2
62
6
2
_AH11
10
136.94566
20
148.49363
30
0.
41
1.6666666999999999
42
1.6666666999999999
50
90.
43
1.6666666999999999
0
INSERT
8
2
62
6
2
_AH11
10
136.94566
20
140.69363000000001
30
0.
41
1.6666666999999999
42
1.6666666999999999
50
270.
43
1.6666666999999999
0
ENDBLK
8
0
0
BLOCK
8
0
2
*D37
70
65
10
0.
20
0.
30
0.
3
*D37
0
LINE
8
2
6
CONTINUOUS
62
6
10
123.77427
20
85.454694000000003
30
0.
11
137.63005000000001
21
85.454694000000003
31
0.
0
LINE
8
2
6
CONTINUOUS
62
6
10
122.41200000000001
20
74.654694000000006
30
0.
11
137.63005000000001
21
74.654694000000006
31
0.
0
LINE
8
2
6
CONTINUOUS
62
6
10
136.63005000000001
20
74.654694000000006
30
0.
11
136.63005000000001
21
85.454694000000003
31
0.
0
LINE
8
2
6
CONTINUOUS
62
6
10
136.63005000000001
20
74.654694000000006
30
0.
11
136.63005000000001
21
62.913406000000002
31
0.
0
TEXT
8
2
6
CONTINUOUS
62
6
10
135.62938
20
63.913406000000002
30
0.
40
1.6666666999999999
1
10,8
50
90.
41
.75
0
TEXT
8
2
6
CONTINUOUS
62
6
10
135.42105000000001
20
69.330072000000001
30
0.
40
1.25
1
%%p0,3
50
90.
41
.75
0
INSERT
8
2
62
6
2
_AH11
10
136.63005000000001
20
85.454694000000003
30
0.
41
1.6666666999999999
42
1.6666666999999999
50
90.
43
1.6666666999999999
0
INSERT
8
2
62
6
2
_AH11
10
136.63005000000001
20
74.654694000000006
30
0.
41
1.6666666999999999
42
1.6666666999999999
50
270.
43
1.6666666999999999
0
ENDBLK
8
0
0
ENDSEC
0
SECTION
2
ENTITIES
0
VIEWPORT
8
0
6
CONTINUOUS
62
3
67
1
68
1
10
148.5
20
105.
30
0.
40
210.
41
210.
69
1
1001
ACAD
1000
MVIEW
1002
{
1070
16
1010
0.
1020
0.
1030
0.
1010
0.
1020
0.
1030
1.
1040
0.
1040
210.
1040
81.674999999999997
1040
105.
1040
50.
1040
0.
1040
0.
1070
0
1070
1000
1070
1
1070
0
1070
0
1070
0
1070
0
1070
0
1040
0.
1040
0.
1040
0.
1040
.5
1040
.5
1040
.5
1040
.5
1070
0
1002
{
1002
}
1002
}
0
VIEWPORT
8
0
6
CONTINUOUS
62
3
67
1
68
2
10
148.5
20
105.
30
0.
40
297.
41
210.
69
2
1001
ACAD
1000
MVIEW
1002
{
1070
16
1010
0.
1020
0.
1030
0.
1010
0.
1020
0.
1030
1.
1040
0.
1040
210.
1040
148.5
1040
105.
1040
50.
1040
0.
1040
0.
1070
0
1070
1000
1070
1
1070
0
1070
0
1070
0
1070
0
1070
0
1040
0.
1040
0.
1040
0.
1040
.5
1040
.5
1040
.5
1040
.5
1070
0
1002
{
1003
2
1002
}
1002
}
0
VIEWPORT
8
0
6
CONTINUOUS
62
3
67
1
68
3
10
150.36816999999999
20
114.26204
30
0.
40
273.13531
41
155.01539
69
3
1001
ACAD
1000
MVIEW
1002
{
1070
16
1010
0.
1020
0.
1030
0.
1010
0.
1020
0.
1030
1.
1040
0.
1040
103.3436
1040
149.86502999999999
1040
110.84371
1040
50.
1040
0.
1040
0.
1070
0
1070
1000
1070
1
1070
0
1070
0
1070
0
1070
0
1070
0
1040
0.
1040
0.
1040
0.
1040
.5
1040
.5
1040
.5
1040
.5
1070
0
1002
{
1003
1
1002
}
1002
}
0
LINE
8
2
6
CENTERLINE
62
1
10
90.754424
20
80.054693999999998
30
0.
11
132.44954000000001
21
80.054693999999998
31
0.
0
TEXT
8
1
6
CONTINUOUS
62
7
10
112.44731222360475
20
11.836987703578764
30
0.
40
2.
1
29738
41
.75
72
1
11
115.07501999999999
21
12.787511
31
0.
73
2
0
LINE
8
2
6
CONTINUOUS
62
7
10
123.71733999999999
20
143.62774999999999
30
0.
11
123.18836
21
146.42775
31
0.
0
LINE
8
2
6
CONTINUOUS
62
7
10
123.22493
20
143.54093
30
0.
11
122.69595
21
146.34092999999999
31
0.
0
LINE
8
2
6
CONTINUOUS
62
7
10
99.193297999999999
20
143.62774999999999
30
0.
11
99.722279
21
146.42775
31
0.
0
LINE
8
2
6
CONTINUOUS
62
7
10
99.685702000000006
20
143.54093
30
0.
11
100.21468
21
146.34092999999999
31
0.
0
LINE
8
1
6
CONTINUOUS
62
40
10
107.57501999999999
20
15.287511
30
0.
11
10.575022000000001
21
15.287511
31
0.
0
LINE
8
1
6
CONTINUOUS
62
40
10
107.57501999999999
20
25.287510999999999
30
0.
11
10.575022000000001
21
25.287510999999999
31
0.
0
LINE
8
1
6
CONTINUOUS
62
40
10
107.57501999999999
20
35.287511000000002
30
0.
11
10.575022000000001
21
35.287511000000002
31
0.
0
LINE
8
1
6
CONTINUOUS
62
40
10
59.075021999999997
20
35.287511000000002
30
0.
11
59.075021999999997
21
5.2875110000000003
31
0.
0
TEXT
8
1
6
CONTINUOUS
62
1
10
20.433069
20
10.360429
30
0.
40
3.
1
Part number
41
.75
0
TEXT
8
1
6
CONTINUOUS
62
1
10
15.828433
20
19.28191
30
0.
40
3.
1
09 69 200 0033
41
.75
0
TEXT
8
1
6
CONTINUOUS
62
1
10
15.828433
20
28.778970000000001
30
0.
40
3.
1
09 69 200 0033.500
41
.75
0
TEXT
8
1
6
CONTINUOUS
62
1
10
66.767210000000006
20
29.066759999999999
30
0.
40
3.
1
Non magnetic
41
.75
0
TEXT
8
1
6
CONTINUOUS
62
7
10
126.47502
20
11.837267460344226
30
0.
40
2.
1
13/11/01
41
.75
72
1
11
130.07501999999999
21
12.787511
31
0.
73
2
0
TEXT
8
1
6
CONTINUOUS
62
7
10
143.87502000000001
20
11.837511000000001
30
0.
40
2.
1
AF
41
.75
72
1
11
145.07501999999999
21
12.787511
31
0.
73
2
0
TEXT
8
1
6
CONTINUOUS
62
7
10
143.35002
20
16.837510999999999
30
0.
40
2.
1
TCP
41
.75
72
1
11
145.07501999999999
21
17.787510999999999
31
0.
73
2
0
TEXT
8
1
6
CONTINUOUS
62
7
10
125.8756105511811
20
16.837267460344226
30
0.
40
2.
1
03/07/03
41
.75
72
1
11
130.07501999999999
21
17.787510999999999
31
0.
73
2
0
TEXT
8
1
6
CONTINUOUS
62
7
10
112.74731222360475
20
16.836987703578764
30
0.
40
2.
1
31519
41
.75
72
1
11
115.07501999999999
21
17.787510999999999
31
0.
73
2
0
TEXT
8
1
6
CONTINUOUS
62
7
10
112.74731222360475
20
21.836987703578764
30
0.
40
2.
1
32119
41
.75
72
1
11
115.07501999999999
21
22.787510999999999
31
0.
73
2
0
TEXT
8
1
6
CONTINUOUS
62
7
10
125.87501999999999
20
21.837267460344226
30
0.
40
2.
1
23/06/03
41
.75
72
1
11
130.07501999999999
21
22.787510999999999
31
0.
73
2
0
TEXT
8
1
6
CONTINUOUS
62
7
10
111.54887101145451
20
26.837267460344226
30
0.
40
2.
1
EC01706
41
.75
72
1
11
115.07501999999999
21
27.787510999999999
31
0.
73
2
0
TEXT
8
1
6
CONTINUOUS
62
7
10
126.0994294488189
20
26.837267460344226
30
0.
40
2.
1
21/04/10
41
.75
72
1
11
130.07501999999999
21
27.787510999999999
31
0.
73
2
0
TEXT
8
1
6
CONTINUOUS
62
7
10
143.95001999999999
20
26.837510999999999
30
0.
40
2.
1
SC
41
.75
72
1
11
145.07501999999999
21
27.787510999999999
31
0.
73
2
0
TEXT
8
1
6
CONTINUOUS
62
7
10
143.87502000000001
20
21.837510999999999
30
0.
40
2.
1
AC
41
.75
72
1
11
145.07501999999999
21
22.787510999999999
31
0.
73
2
0
DIMENSION
8
2
6
CONTINUOUS
62
6
2
*D26
10
84.288872999999995
20
138.34362999999999
30
0.
11
82.454873000000006
21
144.70001999999999
31
0.
70
128
13
93.405315999999999
23
150.84362999999999
33
0.
14
93.405315999999999
24
138.34362999999999
34
0.
50
90.
3
DSTYLE1
1001
ACAD
1000
DSTYLE
1002
{
1070
173
1070
0
1070
5
1000
_AH1
1070
47
1040
.4
1070
48
1040
.4
1070
284
1070
8
1002
}
0
INSERT
8
1
2
A4-QUER
10
.575022
20
.287511
30
0.
0
LINE
8
1
6
CONTINUOUS
62
2
10
292.57501999999999
20
40.287511000000002
30
0.
11
292.57501999999999
21
5.2875110000000003
31
0.
0
LINE
8
1
6
CONTINUOUS
62
2
10
107.57501999999999
20
40.287511000000002
30
0.
11
107.57501999999999
21
5.2875110000000003
31
0.
0
LINE
8
1
6
CONTINUOUS
62
2
10
107.57501999999999
20
5.2875110000000003
30
0.
11
292.57501999999999
21
5.2875110000000003
31
0.
0
POINT
8
1
6
CONTINUOUS
62
1
10
246.15619000000001
20
31.784407000000002
30
0.
0
POINT
8
1
6
CONTINUOUS
62
1
10
246.15619000000001
20
25.468630999999998
30
0.
0
LINE
8
1
6
CONTINUOUS
62
3
10
107.57501999999999
20
10.287511
30
0.
11
152.57501999999999
21
10.287511
31
0.
0
LINE
8
1
6
CONTINUOUS
62
3
10
107.57501999999999
20
15.287511
30
0.
11
152.57501999999999
21
15.287511
31
0.
0
LINE
8
1
6
CONTINUOUS
62
3
10
107.57501999999999
20
20.287510999999999
30
0.
11
212.57501999999999
21
20.287510999999999
31
0.
0
LINE
8
1
6
CONTINUOUS
62
3
10
107.57501999999999
20
25.287510999999999
30
0.
11
192.57501999999999
21
25.287510999999999
31
0.
0
LINE
8
1
6
CONTINUOUS
62
3
10
107.57501999999999
20
30.287510999999999
30
0.
11
192.57501999999999
21
30.287510999999999
31
0.
0
LINE
8
1
6
CONTINUOUS
62
3
10
107.57501999999999
20
35.287511000000002
30
0.
11
192.57501999999999
21
35.287511000000002
31
0.
0
LINE
8
1
6
CONTINUOUS
62
2
10
107.57501999999999
20
40.287511000000002
30
0.
11
292.57501999999999
21
40.287511000000002
31
0.
0
LINE
8
1
6
CONTINUOUS
62
3
10
122.57501999999999
20
40.287511000000002
30
0.
11
122.57501999999999
21
5.2875110000000003
31
0.
0
LINE
8
1
6
CONTINUOUS
62
3
10
137.57501999999999
20
40.287511000000002
30
0.
11
137.57501999999999
21
5.2875110000000003
31
0.
0
LINE
8
1
6
CONTINUOUS
62
2
10
152.57501999999999
20
40.287511000000002
30
0.
11
152.57501999999999
21
5.2875110000000003
31
0.
0
LINE
8
1
6
CONTINUOUS
62
3
10
162.57501999999999
20
40.287511000000002
30
0.
11
162.57501999999999
21
20.287510999999999
31
0.
0
LINE
8
1
6
CONTINUOUS
62
3
10
212.57501999999999
20
40.287511000000002
30
0.
11
212.57501999999999
21
20.287510999999999
31
0.
0
LINE
8
1
6
CONTINUOUS
62
2
10
212.57501999999999
20
10.287511
30
0.
11
278.53944999999999
21
10.287511
31
0.
0
LINE
8
1
6
CONTINUOUS
62
3
10
177.57501999999999
20
40.287511000000002
30
0.
11
177.57501999999999
21
20.287510999999999
31
0.
0
LINE
8
1
6
CONTINUOUS
62
3
10
192.57501999999999
20
40.287511000000002
30
0.
11
192.57501999999999
21
20.287510999999999
31
0.
0
LINE
8
1
6
CONTINUOUS
62
2
10
195.35844
20
36.395131999999997
30
0.
11
195.35844
21
32.895131999999997
31
0.
0
LINE
8
1
6
CONTINUOUS
62
2
10
202.35844
20
38.145131999999997
30
0.
11
202.35844
21
31.145132
31
0.
0
LINE
8
1
6
CONTINUOUS
62
2
10
202.35844
20
38.145131999999997
30
0.
11
195.35844
21
36.395131999999997
31
0.
0
LINE
8
1
6
CONTINUOUS
62
2
10
202.35844
20
31.145132
30
0.
11
195.35844
21
32.895131999999997
31
0.
0
CIRCLE
8
1
6
CONTINUOUS
62
2
10
207.00844000000001
20
34.645131999999997
30
0.
40
3.5
0
CIRCLE
8
1
6
CONTINUOUS
62
2
10
207.00844000000001
20
34.645131999999997
30
0.
40
1.75
0
LINE
8
1
6
CENTERLINE
62
3
10
193.93343999999999
20
34.645131999999997
30
0.
11
211.93343999999999
21
34.645131999999997
31
0.
0
LINE
8
1
6
CENTERLINE
62
3
10
207.00844000000001
20
39.145131999999997
30
0.
11
207.00844000000001
21
30.145132
31
0.
0
TEXT
8
1
6
CONTINUOUS
62
1
10
113.77502
20
6.8375110000000001
30
0.
40
2.
1
Mod.
41
.5
72
1
11
115.07501999999999
21
7.7875110000000003
31
0.
73
2
0
TEXT
8
1
6
CONTINUOUS
62
1
10
128.87502000000001
20
6.8375110000000001
30
0.
40
2.
1
Dat.
41
.5
72
1
11
130.07501999999999
21
7.7875110000000003
31
0.
73
2
0
TEXT
8
1
6
CONTINUOUS
62
1
10
143.52501999999998
20
6.8375110000000001
30
0.
40
2.
1
Name
41
.5
72
1
11
145.07501999999999
21
7.7875110000000003
31
0.
73
2
0
TEXT
8
1
6
CONTINUOUS
62
1
10
154.05193
20
31.799991000000002
30
0.
40
2.
1
Detail.
41
.5
11
154.05193
21
32.749991000000001
31
0.
73
2
0
TEXT
8
1
6
CONTINUOUS
62
1
10
154.05193
20
26.799991000000002
30
0.
40
2.
1
Insp.
41
.5
11
154.05193
21
27.749991000000001
31
0.
73
2
0
TEXT
8
1
6
CONTINUOUS
62
1
10
154.05193
20
21.799991000000002
30
0.
40
2.
1
Stand.
41
.5
11
154.05193
21
22.749991000000001
31
0.
73
2
0
TEXT
8
1
6
CONTINUOUS
62
1
10
183.52501999999998
20
36.837510999999999
30
0.
40
2.
1
Name
41
.5
72
1
11
185.07501999999999
21
37.787511000000002
31
0.
73
2
0
TEXT
8
1
6
CONTINUOUS
62
1
10
168.87502000000001
20
36.837510999999999
30
0.
40
2.
1
Dat.
41
.5
72
1
11
170.07501999999999
21
37.787511000000002
31
0.
73
2
0
TEXT
8
1
6
CONTINUOUS
62
1
10
214.05193
20
6.7999909999999995
30
0.
40
2.
1
Sub.
41
.5
11
214.05193
21
7.7499909999999996
31
0.
73
2
0
LINE
8
1
6
CONTINUOUS
62
2
10
212.57501999999999
20
20.287510999999999
30
0.
11
212.57501999999999
21
10.287511
31
0.
0
LINE
8
1
6
CONTINUOUS
62
3
10
212.57501999999999
20
10.287511
30
0.
11
212.57501999999999
21
5.2875110000000003
31
0.
0
LINE
8
1
6
CONTINUOUS
62
2
10
212.57501999999999
20
20.287510999999999
30
0.
11
278.53944999999999
21
20.287510999999999
31
0.
0
POINT
8
1
6
CONTINUOUS
62
1
10
292.57501999999999
20
5.2875110000000003
30
0.
0
POINT
8
1
6
CONTINUOUS
62
1
10
246.15619000000001
20
15.287511
30
0.
0
POINT
8
1
6
CONTINUOUS
62
1
10
202.57501999999999
20
27.787510999999999
30
0.
0
POINT
8
1
6
CONTINUOUS
62
1
10
185.07501999999999
20
22.787510999999999
30
0.
0
POINT
8
1
6
CONTINUOUS
62
1
10
170.07501999999999
20
22.787510999999999
30
0.
0
POINT
8
1
6
CONTINUOUS
62
1
10
185.07501999999999
20
27.787510999999999
30
0.
0
POINT
8
1
6
CONTINUOUS
62
1
10
185.07501999999999
20
32.787511000000002
30
0.
0
POINT
8
1
6
CONTINUOUS
62
1
10
170.07501999999999
20
32.787511000000002
30
0.
0
POINT
8
1
6
CONTINUOUS
62
1
10
170.07501999999999
20
27.787510999999999
30
0.
0
POINT
8
1
6
CONTINUOUS
62
1
10
145.07501999999999
20
12.787511
30
0.
0
POINT
8
1
6
CONTINUOUS
62
1
10
145.07501999999999
20
17.787510999999999
30
0.
0
POINT
8
1
6
CONTINUOUS
62
1
10
145.07501999999999
20
22.787510999999999
30
0.
0
POINT
8
1
6
CONTINUOUS
62
1
10
145.07501999999999
20
27.787510999999999
30
0.
0
POINT
8
1
6
CONTINUOUS
62
1
10
145.07501999999999
20
32.787511000000002
30
0.
0
POINT
8
1
6
CONTINUOUS
62
1
10
145.07501999999999
20
37.787511000000002
30
0.
0
POINT
8
1
6
CONTINUOUS
62
1
10
130.07501999999999
20
12.787511
30
0.
0
POINT
8
1
6
CONTINUOUS
62
1
10
130.07501999999999
20
17.787510999999999
30
0.
0
POINT
8
1
6
CONTINUOUS
62
1
10
130.07501999999999
20
22.787510999999999
30
0.
0
POINT
8
1
6
CONTINUOUS
62
1
10
130.07501999999999
20
27.787510999999999
30
0.
0
POINT
8
1
6
CONTINUOUS
62
1
10
130.07501999999999
20
32.787511000000002
30
0.
0
POINT
8
1
6
CONTINUOUS
62
1
10
130.07501999999999
20
37.787511000000002
30
0.
0
POINT
8
1
6
CONTINUOUS
62
1
10
115.07501999999999
20
37.787511000000002
30
0.
0
POINT
8
1
6
CONTINUOUS
62
1
10
115.07501999999999
20
32.787511000000002
30
0.
0
POINT
8
1
6
CONTINUOUS
62
1
10
115.07501999999999
20
27.787510999999999
30
0.
0
POINT
8
1
6
CONTINUOUS
62
1
10
115.07501999999999
20
22.787510999999999
30
0.
0
POINT
8
1
6
CONTINUOUS
62
1
10
115.07501999999999
20
17.787510999999999
30
0.
0
POINT
8
1
6
CONTINUOUS
62
1
10
115.07501999999999
20
12.787511
30
0.
0
POINT
8
1
6
CONTINUOUS
62
1
10
246.15619000000001
20
7.7875110000000003
30
0.
0
POINT
8
1
6
CONTINUOUS
62
1
10
285.55703
20
25.468630999999998
30
0.
0
LINE
8
1
6
CONTINUOUS
62
1
10
200.35696999999999
20
13.215945
30
0.
11
200.35696999999999
21
15.415945000000001
31
0.
0
LINE
8
1
6
CONTINUOUS
62
1
10
209.55697000000001
20
16.332594
30
0.
11
209.55697000000001
21
17.032594
31
0.
0
LINE
8
1
6
CONTINUOUS
62
1
10
209.55697000000001
20
17.032594
30
0.
11
209.80697000000001
21
17.032594
31
0.
0
LINE
8
1
6
CONTINUOUS
62
1
10
209.65697
20
16.632594000000001
30
0.
11
209.74517
21
16.632594000000001
31
0.
0
LINE
8
1
6
CONTINUOUS
62
1
10
209.85417000000001
20
16.638244
30
0.
11
210.00697
21
16.332594
31
0.
0
ARC
8
1
6
CONTINUOUS
62
1
10
190.39757
20
11.932594999999999
30
0.
40
9.9999824000000004
50
354.83638000000008
51
365.16361999999998
0
ARC
8
1
6
CONTINUOUS
62
1
10
210.76636999999999
20
11.932594999999999
30
0.
40
9.9999754999999997
50
181.43254999999999
51
185.16362000000001
0
ARC
8
1
6
CONTINUOUS
62
1
10
205.35696999999999
20
7.9325945000000004
30
0.
40
9.0000292999999996
50
56.251136000000002
51
123.74886000000001
0
LINE
8
1
6
CONTINUOUS
62
1
10
200.35696999999999
20
10.649293999999999
30
0.
11
200.35696999999999
21
8.4492945000000006
31
0.
0
ARC
8
1
6
CONTINUOUS
62
1
10
205.35696999999999
20
18.132594000000001
30
0.
40
8.9999877000000001
50
236.25095999999999
51
303.74903999999998
0
ARC
8
1
6
CONTINUOUS
62
1
10
205.35696999999999
20
15.932594999999999
30
0.
40
8.9999877000000001
50
236.25095999999999
51
303.74903999999998
0
LINE
8
1
6
CONTINUOUS
62
1
10
210.35696999999999
20
10.649293999999999
30
0.
11
210.35696999999999
21
8.4492945000000006
31
0.
0
ARC
8
1
6
CONTINUOUS
62
1
10
200.58197000000001
20
10.058244999999999
30
0.
40
.9999914600000001
50
76.997009000000006
51
103.00299
0
ARC
8
1
6
CONTINUOUS
62
1
10
210.76636999999999
20
11.932594999999999
30
0.
40
9.9999824000000004
50
174.83637999999999
51
178.56745000000001
0
ARC
8
1
6
CONTINUOUS
62
1
10
191.14757
20
11.932594999999999
30
0.
40
9.9999824000000004
50
354.83638000000008
51
358.56745000000001
0
ARC
8
1
6
CONTINUOUS
62
1
10
191.14757
20
11.932594999999999
30
0.
40
9.9999754999999997
50
1.4325471999999999
51
5.1636161999999999
0
ARC
8
1
6
CONTINUOUS
62
1
10
200.58197000000001
20
13.806995000000001
30
0.
40
1.0000401999999999
50
256.99765000000002
51
283.00234999999998
0
ARC
8
1
6
CONTINUOUS
62
1
10
201.33197000000001
20
10.058244999999999
30
0.
40
.9999914600000001
50
76.997009000000006
51
103.00299
0
ARC
8
1
6
CONTINUOUS
62
1
10
201.33197000000001
20
13.806995000000001
30
0.
40
1.0000401999999999
50
256.99765000000002
51
283.00234999999998
0
ARC
8
1
6
CONTINUOUS
62
1
10
211.51636999999999
20
11.932594999999999
30
0.
40
9.9999824000000004
50
174.83637999999999
51
185.16362000000001
0
LINE
8
1
6
CONTINUOUS
62
1
10
200.76952
20
12.182594999999999
30
0.
11
201.14442
21
12.182594999999999
31
0.
0
LINE
8
1
6
CONTINUOUS
62
1
10
200.76952
20
11.682594999999999
30
0.
11
201.14442
21
11.682594999999999
31
0.
0
LINE
8
1
6
CONTINUOUS
62
1
10
202.33927
20
12.832595
30
0.
11
201.85696999999999
21
11.032595000000001
31
0.
0
LINE
8
1
6
CONTINUOUS
62
1
10
202.37756999999999
20
11.382593999999999
30
0.
11
202.83636999999999
21
11.382593999999999
31
0.
0
LINE
8
1
6
CONTINUOUS
62
1
10
202.60696999999999
20
12.242243999999999
30
0.
11
202.48382000000001
21
11.782595000000001
31
0.
0
LINE
8
1
6
CONTINUOUS
62
1
10
202.73012
20
11.782595000000001
30
0.
11
202.48382000000001
21
11.782595000000001
31
0.
0
LINE
8
1
6
CONTINUOUS
62
1
10
202.87467000000001
20
12.832595
30
0.
11
203.35696999999999
21
11.032595000000001
31
0.
0
ARC
8
1
6
CONTINUOUS
62
1
10
202.60696999999999
20
13.796094999999999
30
0.
40
.99999777
50
254.47251999999997
51
285.52748000000003
0
ARC
8
1
6
CONTINUOUS
62
1
10
204.36712
20
11.178544
30
0.
40
1.9999864000000001
50
174.14417
51
184.30554000000001
0
LINE
8
1
6
CONTINUOUS
62
1
10
202.60696999999999
20
12.242243999999999
30
0.
11
202.73012
21
11.782595000000001
31
0.
0
ARC
8
1
6
CONTINUOUS
62
1
10
203.88197
20
13.806995000000001
30
0.
40
1.0000401999999999
50
256.99765000000002
51
272.47300000000001
0
ARC
8
1
6
CONTINUOUS
62
1
10
214.11636999999999
20
11.932594999999999
30
0.
40
9.9999789000000003
50
180.64259000000001
51
185.16362000000001
0
ARC
8
1
6
CONTINUOUS
62
1
10
193.69757000000001
20
11.932594999999999
30
0.
40
9.9999824000000004
50
354.83638000000008
51
365.16361999999998
0
LINE
8
1
6
CONTINUOUS
62
1
10
204.11636999999999
20
12.382593999999999
30
0.
11
204.26636999999999
21
12.382593999999999
31
0.
0
LINE
8
1
6
CONTINUOUS
62
1
10
204.11636999999999
20
12.182594999999999
30
0.
11
204.11636999999999
21
12.382593999999999
31
0.
0
LINE
8
1
6
CONTINUOUS
62
1
10
204.11636999999999
20
12.182594999999999
30
0.
11
204.26636999999999
21
12.182594999999999
31
0.
0
ARC
8
1
6
CONTINUOUS
62
1
10
204.26636999999999
20
12.282595000000001
30
0.
40
.1
50
270.
51
450.
0
LINE
8
1
6
CONTINUOUS
62
1
10
203.92511999999999
20
12.807893999999999
30
0.
11
204.48757000000001
21
12.832193999999999
31
0.
0
ARC
8
1
6
CONTINUOUS
62
1
10
204.50697
20
12.382593999999999
30
0.
40
.44997327
50
285.04460999999998
51
452.47075000000001
0
ARC
8
1
6
CONTINUOUS
62
1
10
201.56082000000001
20
10.250144000000001
30
0.
40
2.9999855000000002
50
15.118601
51
31.562834999999996
0
ARC
8
1
6
CONTINUOUS
62
1
10
203.90697
20
10.064344999999999
30
0.
40
1.0000039999999999
50
75.522547000000003
51
104.47745
0
ARC
8
1
6
CONTINUOUS
62
1
10
217.26636999999999
20
11.932594999999999
30
0.
40
9.9999824000000004
50
174.83637999999999
51
185.16362000000001
0
ARC
8
1
6
CONTINUOUS
62
1
10
196.79757000000001
20
11.932594999999999
30
0.
40
9.9999824000000004
50
354.83638000000008
51
365.16361999999998
0
ARC
8
1
6
CONTINUOUS
62
1
10
195.62252000000001
20
11.932594999999999
30
0.
40
10.000031999999999
50
354.83641
51
362.68328000000002
0
ARC
8
1
6
CONTINUOUS
62
1
10
216.09137000000001
20
11.932594999999999
30
0.
40
9.9999643000000003
50
177.31671
51
185.16362000000001
0
ARC
8
1
6
CONTINUOUS
62
1
10
205.85696999999999
20
2.4037445000000002
30
0.
40
10.000012
50
91.406177999999997
51
93.726836000000006
0
ARC
8
1
6
CONTINUOUS
62
1
10
205.85696999999999
20
22.811444999999999
30
0.
40
9.9999973999999998
50
266.27314999999999
51
273.72685000000001
0
ARC
8
1
6
CONTINUOUS
62
1
10
204.43926999999999
20
12.607594000000001
30
0.
40
.79997862
50
343.66845999999998
51
376.33497999999997
0
ARC
8
1
6
CONTINUOUS
62
1
10
207.27466999999999
20
12.607594000000001
30
0.
40
.79999268
50
163.66502
51
196.33153999999999
0
ARC
8
1
6
CONTINUOUS
62
1
10
205.85696999999999
20
2.4037445000000002
30
0.
40
10.000047
50
86.273163999999994
51
88.593822000000003
0
ARC
8
1
6
CONTINUOUS
62
1
10
207.03197
20
13.794045000000001
30
0.
40
1.0000055999999999
50
254.03808000000001
51
285.96192000000002
0
ARC
8
1
6
CONTINUOUS
62
1
10
207.03197
20
10.071145
30
0.
40
1.0000055999999999
50
74.038077000000001
51
105.96192000000001
0
ARC
8
1
6
CONTINUOUS
62
1
10
205.85696999999999
20
9.8645444999999992
30
0.
40
1.1999858000000001
50
76.751824999999997
51
103.24818
0
ARC
8
1
6
CONTINUOUS
62
1
10
207.83197000000001
20
10.071145
30
0.
40
1.0000055999999999
50
74.038077000000001
51
105.96192000000001
0
ARC
8
1
6
CONTINUOUS
62
1
10
218.06637000000001
20
11.932594999999999
30
0.
40
9.9999608999999996
50
181.04427999999999
51
185.16362000000001
0
ARC
8
1
6
CONTINUOUS
62
1
10
207.83197000000001
20
13.794045000000001
30
0.
40
1.0000055999999999
50
254.03808000000001
51
285.96192000000002
0
ARC
8
1
6
CONTINUOUS
62
1
10
197.59756999999999
20
11.932594999999999
30
0.
40
9.9999824000000004
50
354.83638000000008
51
365.16361999999998
0
ARC
8
1
6
CONTINUOUS
62
1
10
218.91641999999999
20
11.932594999999999
30
0.
40
10.000031999999999
50
174.83641
51
185.16359
0
ARC
8
1
6
CONTINUOUS
62
1
10
208.68197000000001
20
13.794045000000001
30
0.
40
1.0000055999999999
50
254.03808000000001
51
285.96192000000002
0
ARC
8
1
6
CONTINUOUS
62
1
10
198.44757000000001
20
11.932594999999999
30
0.
40
9.9999617999999995
50
1.0445639
51
5.1636161999999999
0
ARC
8
1
6
CONTINUOUS
62
1
10
208.68197000000001
20
10.071145
30
0.
40
1.0000055999999999
50
74.038077000000001
51
105.96192000000001
0
LINE
8
1
6
CONTINUOUS
62
1
10
208.10696999999999
20
12.832595
30
0.
11
208.44587000000001
21
12.114895000000001
31
0.
0
LINE
8
1
6
CONTINUOUS
62
1
10
208.40697
20
11.032595000000001
30
0.
11
208.06807000000001
21
11.750344999999999
31
0.
0
ARC
8
1
6
CONTINUOUS
62
1
10
205.35696999999999
20
5.7325945000000003
30
0.
40
9.0000292999999996
50
56.251136000000002
51
123.74886000000001
0
LINE
8
1
6
CONTINUOUS
62
1
10
210.35696999999999
20
13.215945
30
0.
11
210.35696999999999
21
15.415945000000001
31
0.
0
ARC
8
1
6
CONTINUOUS
62
1
10
210.19512
20
11.932594999999999
30
0.
40
1.0381724999999999
50
130.46450999999999
51
229.53370000000001
0
ARC
8
1
6
CONTINUOUS
62
1
10
209.85696999999999
20
11.598845000000001
30
0.
40
.56622342
50
233.65123
51
282.91953000000001
0
ARC
8
1
6
CONTINUOUS
62
1
10
209.85696999999999
20
12.266394999999999
30
0.
40
.56622726
50
83.927436999999998
51
126.34877
0
LINE
8
1
6
CONTINUOUS
62
1
10
210.35696999999999
20
11.932594999999999
30
0.
11
210.35696999999999
21
11.132593999999999
31
0.
0
LINE
8
1
6
CONTINUOUS
62
1
10
210.35696999999999
20
11.132593999999999
30
0.
11
209.98356999999999
21
11.046944999999999
31
0.
0
LINE
8
1
6
CONTINUOUS
62
1
10
210.35696999999999
20
12.782595000000001
30
0.
11
210.35696999999999
21
12.182594999999999
31
0.
0
LINE
8
1
6
CONTINUOUS
62
1
10
209.65697
20
12.082595
30
0.
11
209.65697
21
11.732594000000001
31
0.
0
ARC
8
1
6
CONTINUOUS
62
1
10
209.85696999999999
20
11.732594000000001
30
0.
40
.2
50
180.
51
240.90366
0
ARC
8
1
6
CONTINUOUS
62
1
10
208.95921999999999
20
11.492095000000001
30
0.
40
1.0000041
50
359.83670999999998
51
386.13585
0
LINE
8
1
6
CONTINUOUS
62
1
10
209.85696999999999
20
11.932594999999999
30
0.
11
210.35696999999999
21
11.932594999999999
31
0.
0
ARC
8
1
6
CONTINUOUS
62
1
10
210.05152000000001
20
12.082145000000001
30
0.
40
.60003144
50
240.90181000000001
51
261.15147999999999
0
LINE
8
1
6
CONTINUOUS
62
1
10
204.62377000000001
20
11.948043999999999
30
0.
11
205.00697
21
11.032595000000001
31
0.
0
ARC
8
1
6
CONTINUOUS
62
1
10
204.73196999999999
20
9.8645444999999992
30
0.
40
1.1999858000000001
50
76.751824999999997
51
103.24818
0
ARC
8
1
6
CONTINUOUS
62
1
10
202.10526999999999
20
9.8585945000000006
30
0.
40
1.1999951
50
77.119546
51
101.94202
0
ARC
8
1
6
CONTINUOUS
62
1
10
200.84682000000001
20
11.178544
30
0.
40
1.9999941999999999
50
355.69445999999999
51
365.85583000000003
0
ARC
8
1
6
CONTINUOUS
62
1
10
203.10866999999999
20
9.8585945000000006
30
0.
40
1.1999704
50
78.057979000000003
51
102.88045
0
LINE
8
1
6
CONTINUOUS
62
1
10
210.35696999999999
20
12.782595000000001
30
0.
11
209.91686999999999
21
12.829444000000001
31
0.
0
ARC
8
1
6
CONTINUOUS
62
1
10
209.95697000000001
20
12.082595
30
0.
40
.30004938
50
67.948600999999996
51
180.
0
ARC
8
1
6
CONTINUOUS
62
1
10
209.69417000000001
20
11.433844000000001
30
0.
40
.9999652
50
48.484467000000002
51
67.948030000000003
0
CIRCLE
8
1
6
CONTINUOUS
62
1
10
209.75697
20
16.682594999999999
30
0.
40
.65
0
CIRCLE
8
1
6
CONTINUOUS
62
1
10
209.75697
20
16.682594999999999
30
0.
40
.55
0
LINE
8
1
6
CONTINUOUS
62
1
10
209.65697
20
16.332594
30
0.
11
209.65697
21
16.632594000000001
31
0.
0
LINE
8
1
6
CONTINUOUS
62
1
10
209.65697
20
16.932594999999999
30
0.
11
209.80697000000001
21
16.932594999999999
31
0.
0
LINE
8
1
6
CONTINUOUS
62
1
10
209.65697
20
16.732595
30
0.
11
209.80697000000001
21
16.732595
31
0.
0
LINE
8
1
6
CONTINUOUS
62
1
10
209.74517
20
16.632594000000001
30
0.
11
209.89517000000001
21
16.332594
31
0.
0
LINE
8
1
6
CONTINUOUS
62
1
10
209.55697000000001
20
16.332594
30
0.
11
209.65697
21
16.332594
31
0.
0
LINE
8
1
6
CONTINUOUS
62
1
10
209.65697
20
16.932594999999999
30
0.
11
209.65697
21
16.732595
31
0.
0
LINE
8
1
6
CONTINUOUS
62
1
10
210.00697
20
16.332594
30
0.
11
209.89517000000001
21
16.332594
31
0.
0
ARC
8
1
6
CONTINUOUS
62
1
10
209.80697000000001
20
16.832594
30
0.
40
.1
50
270.
51
450.
0
ARC
8
1
6
CONTINUOUS
62
1
10
209.80697000000001
20
16.832594
30
0.
40
.19999941
50
283.65062
51
450.
0
INSERT
8
1
2
*X10
10
210.26385999999999
20
11.182990999999999
30
0.
0
INSERT
8
1
2
*X11
10
210.18553
20
16.254041000000001
30
0.
0
TEXT
8
1
6
CONTINUOUS
62
1
10
231.79356278261668
20
13.860828268128076
30
0.
40
3.5
1
TB 09 69 200 0033
41
.75
72
1
11
246.10928999999999
21
15.525586000000001
31
0.
73
2
0
LINE
8
1
6
CONTINUOUS
62
3
10
278.53944999999999
20
40.287511000000002
30
0.
11
278.53944999999999
21
5.2875110000000003
31
0.
0
LINE
8
1
6
CONTINUOUS
62
3
10
278.53944999999999
20
20.287510999999999
30
0.
11
292.57501999999999
21
20.287510999999999
31
0.
0
POINT
8
1
6
CONTINUOUS
62
1
10
288.44331
20
9.4141670000000008
30
0.
0
POINT
8
1
6
CONTINUOUS
62
1
10
283.93150000000003
20
13.041304
30
0.
0
TEXT
8
1
6
CONTINUOUS
62
1
10
282.65577999999999
20
36.803536999999999
30
0.
40
2.
1
MaЯstab/
41
.5
72
1
11
285.55703
21
37.756036999999999
31
0.
73
2
0
TEXT
8
1
6
CONTINUOUS
62
1
10
283.30245628311707
20
34.074157
30
0.
40
2.
1
Scale
41
.5
51
14.999999999999998
72
1
11
285.07668000000001
21
35.024157000000002
31
0.
73
2
0
TEXT
8
1
6
CONTINUOUS
62
1
10
281.58046000000002
20
16.874274
30
0.
40
2.
1
Blatt/
41
.5
72
1
11
283.48045999999999
21
17.824273999999999
31
0.
73
2
0
TEXT
8
1
6
CONTINUOUS
62
1
10
287.34901120236015
20
16.826744000000001
30
0.
40
2.
1
Page
41
.5
51
14.999999999999998
72
1
11
288.94644
21
17.776744000000001
31
0.
73
2
0
LINE
8
1
6
CONTINUOUS
62
3
10
282.52985000000001
20
8.7459819999999997
30
0.
11
289.68184000000002
21
13.925972
31
0.
0
INSERT
8
1
2
*T21
10
202.45106000000001
20
27.511845999999998
30
0.
0
INSERT
8
1
2
*T22
10
156.12073000000001
20
13.300929999999999
30
0.
0
LINE
8
2
6
CENTERLINE
62
3
10
111.45532
20
108.66330000000001
30
0.
11
111.45532
21
125.04080999999999
31
0.
0
ARC
8
2
6
CONTINUOUS
62
7
10
124.93031999999999
20
115.34712
30
0.
40
.37499972
50
89.999956999999995
51
180.00004000000001
0
LINE
8
2
6
CONTINUOUS
62
7
10
124.55531999999999
20
115.34712
30
0.
11
124.55531999999999
21
110.97211
31
0.
0
ARC
8
2
6
CONTINUOUS
62
7
10
123.30531999999999
20
110.97211
30
0.
40
1.2499990999999999
50
270.
51
360.
0
LINE
8
2
6
CONTINUOUS
62
7
10
123.30531999999999
20
109.72212
30
0.
11
99.605316999999999
21
109.72212
31
0.
0
ARC
8
2
6
CONTINUOUS
62
7
10
99.605316999999999
20
110.97211
30
0.
40
1.2499990999999999
50
180.
51
270.
0
LINE
8
2
6
CONTINUOUS
62
7
10
98.355317999999997
20
110.97211
30
0.
11
98.355317999999997
21
115.34712
31
0.
0
ARC
8
2
6
CONTINUOUS
62
7
10
97.980317999999997
20
115.34712
30
0.
40
.37499972
50
359.99995999999999
51
450.00004000000001
0
CIRCLE
8
2
6
CONTINUOUS
62
7
10
94.974267999999995
20
80.054637999999997
30
0.
40
2.25
0
CIRCLE
8
2
6
CONTINUOUS
62
7
10
94.974267999999995
20
80.054637999999997
30
0.
40
1.55
0
INSERT
8
1
2
*T23
10
247.54684
20
33.063747999999997
30
0.
0
ARC
8
2
6
CONTINUOUS
62
7
10
129.73804000000001
20
84.867153999999999
30
0.
40
1.4375834999999999
50
357.50981999999999
51
449.55257999999998
0
LINE
8
2
6
CONTINUOUS
62
7
10
131.17427000000001
20
84.804693999999998
30
0.
11
131.17427000000001
21
75.304693999999998
31
0.
0
LINE
8
2
6
CONTINUOUS
62
7
10
93.574267000000006
20
73.804693999999998
30
0.
11
129.74927
21
73.804693999999998
31
0.
0
ARC
8
2
6
CONTINUOUS
62
7
10
93.574267000000006
20
75.304693
30
0.
40
1.4999989
50
180.
51
270.
0
LINE
8
2
6
CONTINUOUS
62
7
10
92.074268000000004
20
75.304693
30
0.
11
92.074268000000004
21
84.804694999999995
31
0.
0
ARC
8
2
6
CONTINUOUS
62
7
10
93.574267000000006
20
84.804694999999995
30
0.
40
1.4999989
50
90.
51
180.
0
LINE
8
2
6
CONTINUOUS
62
7
10
93.574267000000006
20
86.304693999999998
30
0.
11
129.74927
21
86.304693999999998
31
0.
0
LINE
8
2
6
CENTERLINE
62
3
10
128.27427
20
77.054693999999998
30
0.
11
128.27427
21
83.054693999999998
31
0.
0
LINE
8
2
6
CENTERLINE
62
3
10
94.974267999999995
20
77.054693999999998
30
0.
11
94.974267999999995
21
83.054693999999998
31
0.
0
LINE
8
2
6
CONTINUOUS
62
7
10
101.28464
20
76.454694000000003
30
0.
11
121.96389000000001
21
76.454694000000003
31
0.
0
ARC
8
2
6
CONTINUOUS
62
7
10
101.28464
20
77.654692999999995
30
0.
40
1.1999987999999999
50
190.16208
51
270.
0
LINE
8
2
6
CONTINUOUS
62
7
10
100.10347
20
77.442972999999995
30
0.
11
99.243093000000002
21
82.242974000000004
31
0.
0
ARC
8
2
6
CONTINUOUS
62
7
10
100.42427000000001
20
82.454694000000003
30
0.
40
1.1999998000000001
50
90.
51
190.16208
0
LINE
8
2
6
CONTINUOUS
62
7
10
100.42427000000001
20
83.654694000000006
30
0.
11
122.82427
21
83.654694000000006
31
0.
0
ARC
8
2
6
CONTINUOUS
62
7
10
122.82427
20
82.454694000000003
30
0.
40
1.1999998000000001
50
349.83792
51
450.
0
LINE
8
2
6
CONTINUOUS
62
7
10
124.00543999999999
20
82.242974000000004
30
0.
11
123.14506
21
77.442972999999995
31
0.
0
ARC
8
2
6
CONTINUOUS
62
7
10
121.96389000000001
20
77.654692999999995
30
0.
40
1.1999987999999999
50
270.
51
349.83792
0
LINE
8
2
6
CENTERLINE
62
3
10
111.62427
20
72.925706000000005
30
0.
11
111.62427
21
87.189110999999997
31
0.
0
LINE
8
2
6
CONTINUOUS
62
7
10
111.62427
20
74.654694000000006
30
0.
11
100.83653
21
74.654694000000006
31
0.
0
ARC
8
2
6
CONTINUOUS
62
7
10
100.83653
20
76.254692000000006
30
0.
40
1.5999983
50
190.16208
51
270.
0
LINE
8
2
6
CONTINUOUS
62
7
10
99.261632000000006
20
75.972398999999996
30
0.
11
97.899367999999996
21
83.572400999999999
31
0.
0
ARC
8
2
6
CONTINUOUS
62
7
10
99.474267999999995
20
83.854693999999995
30
0.
40
1.5999999
50
90.
51
190.16208
0
LINE
8
2
6
CONTINUOUS
62
7
10
99.474267999999995
20
85.454694000000003
30
0.
11
111.62427
21
85.454694000000003
31
0.
0
LINE
8
2
6
CONTINUOUS
62
7
10
111.62427
20
85.454694000000003
30
0.
11
123.77427
21
85.454694000000003
31
0.
0
ARC
8
2
6
CONTINUOUS
62
7
10
123.77427
20
83.854693999999995
30
0.
40
1.5999999
50
349.83792
51
450.
0
LINE
8
2
6
CONTINUOUS
62
7
10
125.34917
20
83.572400999999999
30
0.
11
123.98690000000001
21
75.972398999999996
31
0.
0
ARC
8
2
6
CONTINUOUS
62
7
10
122.41200000000001
20
76.254692000000006
30
0.
40
1.5999983
50
270.
51
349.83792
0
LINE
8
2
6
CONTINUOUS
62
7
10
122.41200000000001
20
74.654694000000006
30
0.
11
111.62427
21
74.654694000000006
31
0.
0
CIRCLE
8
2
6
CONTINUOUS
62
7
10
128.27427
20
80.054693999999998
30
0.
40
1.55
0
CIRCLE
8
2
6
CONTINUOUS
62
7
10
128.27427
20
80.054693999999998
30
0.
40
2.25
0
CIRCLE
8
2
6
CONTINUOUS
62
7
10
94.805318
20
144.59362999999999
30
0.
40
1.55
0
LINE
8
2
6
CONTINUOUS
62
7
10
131.00532000000001
20
115.72212
30
0.
11
91.905317999999994
21
115.72212
31
0.
0
LINE
8
2
6
CONTINUOUS
62
7
10
91.905317999999994
20
116.62212
30
0.
11
131.00532000000001
21
116.62212
31
0.
0
LINE
8
2
6
CONTINUOUS
62
7
10
91.905317999999994
20
116.22212
30
0.
11
131.00532000000001
21
116.22212
31
0.
0
ARC
8
2
6
CONTINUOUS
62
7
10
129.56908999999999
20
149.40609000000001
30
0.
40
1.4375834999999999
50
357.50981999999999
51
449.55257999999998
0
LINE
8
2
6
CONTINUOUS
62
7
10
131.00532000000001
20
149.34362999999999
30
0.
11
131.00532000000001
21
139.84362999999999
31
0.
0
ARC
8
2
6
CONTINUOUS
62
7
10
129.56908999999999
20
139.78117
30
0.
40
1.4375834999999999
50
270.44742000000002
51
362.49018000000001
0
LINE
8
2
6
CONTINUOUS
62
7
10
129.58032
20
138.34362999999999
30
0.
11
111.45532
21
138.34362999999999
31
0.
0
LINE
8
2
6
CONTINUOUS
62
7
10
111.45532
20
138.34362999999999
30
0.
11
93.405315999999999
21
138.34362999999999
31
0.
0
ARC
8
2
6
CONTINUOUS
62
7
10
93.405315999999999
20
139.84362999999999
30
0.
40
1.4999989
50
179.99995999999999
51
270.00004000000001
0
LINE
8
2
6
CONTINUOUS
62
7
10
91.905317999999994
20
139.84362999999999
30
0.
11
91.905317999999994
21
149.34362999999999
31
0.
0
ARC
8
2
6
CONTINUOUS
62
7
10
93.405315999999999
20
149.34362999999999
30
0.
40
1.4999989
50
89.999956999999995
51
180.00004000000001
0
LINE
8
2
6
CONTINUOUS
62
7
10
93.405315999999999
20
150.84362999999999
30
0.
11
111.45532
21
150.84362999999999
31
0.
0
LINE
8
2
6
CONTINUOUS
62
7
10
111.45532
20
150.84362999999999
30
0.
11
129.58032
21
150.84362999999999
31
0.
0
LINE
8
2
6
CONTINUOUS
62
7
10
91.905317999999994
20
116.62212
30
0.
11
91.905317999999994
21
115.72212
31
0.
0
CIRCLE
8
2
6
CONTINUOUS
62
7
10
128.10532000000001
20
144.59362999999999
30
0.
40
1.55
0
LINE
8
2
6
CONTINUOUS
62
7
10
111.45532
20
147.99363
30
0.
11
120.77634
21
147.99363
31
0.
0
LINE
8
2
6
CONTINUOUS
62
7
10
121.30531999999999
20
141.19363000000001
30
0.
11
111.45532
21
141.19363000000001
31
0.
0
LINE
8
2
6
CONTINUOUS
62
7
10
111.45532
20
141.19363000000001
30
0.
11
101.60532000000001
21
141.19363000000001
31
0.
0
LINE
8
2
6
CONTINUOUS
62
7
10
102.1343
20
147.99363
30
0.
11
111.45532
21
147.99363
31
0.
0
LINE
8
2
6
CONTINUOUS
62
7
10
111.45532
20
148.49363
30
0.
11
120.77634
21
148.49363
31
0.
0
LINE
8
2
6
CONTINUOUS
62
7
10
121.30531999999999
20
140.69363000000001
30
0.
11
101.60532000000001
21
140.69363000000001
31
0.
0
LINE
8
2
6
CONTINUOUS
62
7
10
102.1343
20
148.49363
30
0.
11
111.45532
21
148.49363
31
0.
0
ARC
8
2
6
CONTINUOUS
62
7
10
125.58032
20
116.99712
30
0.
40
.37499972
50
179.99995999999999
51
270.00004000000001
0
LINE
8
2
6
CONTINUOUS
62
7
10
125.20532
20
116.99712
30
0.
11
125.20532
21
119.37212
31
0.
0
ARC
8
2
6
CONTINUOUS
62
7
10
123.95532
20
119.37212
30
0.
40
1.2499990999999999
50
0.
51
90.
0
LINE
8
2
6
CONTINUOUS
62
7
10
123.95532
20
120.62212
30
0.
11
98.955316999999994
21
120.62212
31
0.
0
ARC
8
2
6
CONTINUOUS
62
7
10
98.955316999999994
20
119.37212
30
0.
40
1.2499990999999999
50
90.
51
180.
0
LINE
8
2
6
CONTINUOUS
62
7
10
97.705318000000005
20
119.37212
30
0.
11
97.705318000000005
21
116.99712
31
0.
0
ARC
8
2
6
CONTINUOUS
62
7
10
97.330318000000005
20
116.99712
30
0.
40
.37499972
50
269.99995999999999
51
360.00004000000001
0
LINE
8
2
6
CONTINUOUS
62
7
10
123.85532000000001
20
120.62212
30
0.
11
123.85532000000001
21
122.12212
31
0.
0
LINE
8
2
6
CONTINUOUS
62
7
10
123.85532000000001
20
122.12212
30
0.
11
99.055318
21
122.12212
31
0.
0
LINE
8
2
6
CONTINUOUS
62
7
10
99.055318
20
122.12212
30
0.
11
99.055318
21
120.62212
31
0.
0
LINE
8
2
6
CONTINUOUS
62
1
10
99.355317999999997
20
115.09712
30
0.
11
99.355317999999997
21
110.34712
31
0.
0
LINE
8
2
6
CENTERLINE
62
3
10
94.805318
20
117.31234000000001
30
0.
11
94.805318
21
114.90545
31
0.
0
LINE
8
2
6
CONTINUOUS
62
1
10
98.724224000000007
20
119.99712
30
0.
11
98.724224000000007
21
117.24712
31
0.
0
LINE
8
2
6
CONTINUOUS
62
1
10
123.55531999999999
20
115.09712
30
0.
11
123.55531999999999
21
110.34712
31
0.
0
LINE
8
2
6
CONTINUOUS
62
1
10
124.18641
20
119.99712
30
0.
11
124.18641
21
117.24712
31
0.
0
LINE
8
2
6
CENTERLINE
62
3
10
128.10532000000001
20
117.27585999999999
30
0.
11
128.10532000000001
21
114.9076
31
0.
0
LINE
8
2
6
CONTINUOUS
62
7
10
171.21571
20
140.0898
30
0.
11
169.71571
21
140.0898
31
0.
0
LINE
8
2
6
CONTINUOUS
62
7
10
169.71571
20
140.0898
30
0.
11
169.71571
21
147.28980000000001
31
0.
0
LINE
8
2
6
CONTINUOUS
62
7
10
169.71571
20
147.28980000000001
30
0.
11
171.21571
21
147.28980000000001
31
0.
0
ARC
8
2
6
CONTINUOUS
62
7
10
174.84071
20
137.91480000000001
30
0.
40
.37499972
50
359.99995999999999
51
450.00004000000001
0
LINE
8
2
6
CONTINUOUS
62
7
10
174.84071
20
138.28980000000001
30
0.
11
172.46571
21
138.28980000000001
31
0.
0
ARC
8
2
6
CONTINUOUS
62
7
10
172.46571
20
139.53980000000001
30
0.
40
1.2499990999999999
50
180.
51
270.
0
LINE
8
2
6
CONTINUOUS
62
7
10
171.21571
20
139.53980000000001
30
0.
11
171.21571
21
147.8398
31
0.
0
ARC
8
2
6
CONTINUOUS
62
7
10
172.46571
20
147.8398
30
0.
40
1.2499990999999999
50
90.
51
180.
0
LINE
8
2
6
CONTINUOUS
62
7
10
172.46571
20
149.0898
30
0.
11
174.84071
21
149.0898
31
0.
0
ARC
8
2
6
CONTINUOUS
62
7
10
174.84071
20
149.4648
30
0.
40
.37499972
50
269.99995999999999
51
360.00004000000001
0
ARC
8
2
6
CONTINUOUS
62
7
10
176.49071000000001
20
138.7148
30
0.
40
.37499972
50
89.999956999999995
51
180.00004000000001
0
LINE
8
2
6
CONTINUOUS
62
7
10
176.49071000000001
20
139.0898
30
0.
11
180.86571000000001
21
139.0898
31
0.
0
ARC
8
2
6
CONTINUOUS
62
7
10
180.86571000000001
20
140.3398
30
0.
40
1.2499990999999999
50
270.
51
360.
0
LINE
8
2
6
CONTINUOUS
62
7
10
182.11571000000001
20
140.3398
30
0.
11
182.11571000000001
21
147.03980000000001
31
0.
0
ARC
8
2
6
CONTINUOUS
62
7
10
180.86571000000001
20
147.03980000000001
30
0.
40
1.2499990999999999
50
0.
51
90.
0
LINE
8
2
6
CONTINUOUS
62
7
10
180.86571000000001
20
148.28980000000001
30
0.
11
176.49071000000001
21
148.28980000000001
31
0.
0
ARC
8
2
6
CONTINUOUS
62
7
10
176.49071000000001
20
148.66480000000001
30
0.
40
.37499972
50
179.99995999999999
51
270.00004000000001
0
LINE
8
2
6
CONTINUOUS
62
7
10
175.61571000000001
20
149.93979999999999
30
0.
11
175.61571000000001
21
137.43979999999999
31
0.
0
LINE
8
2
6
CONTINUOUS
62
7
10
176.11571000000001
20
137.43979999999999
30
0.
11
176.11571000000001
21
149.93979999999999
31
0.
0
LINE
8
2
6
CONTINUOUS
62
7
10
175.21571
20
149.93979999999999
30
0.
11
175.21571
21
137.43979999999999
31
0.
0
LINE
8
2
6
CENTERLINE
62
3
10
168.99360999999999
20
143.68979999999999
30
0.
11
183.19487000000001
21
143.68979999999999
31
0.
0
LINE
8
2
6
CONTINUOUS
62
7
10
175.21571
20
137.43979999999999
30
0.
11
176.11571000000001
21
137.43979999999999
31
0.
0
LINE
8
2
6
CONTINUOUS
62
7
10
175.21571
20
149.93979999999999
30
0.
11
176.11571000000001
21
149.93979999999999
31
0.
0
DIMENSION
8
2
6
CONTINUOUS
62
6
2
*D27
10
82.086190999999999
20
115.72212
30
0.
11
80.252190999999996
21
111.85603
31
0.
70
128
1
6.3
13
99.055318
23
122.12212
33
0.
14
91.905317999999994
24
115.72212
34
0.
50
90.
3
DSTYLE2
1001
ACAD
1000
DSTYLE
1002
{
1070
173
1070
0
1070
5
1000
_AH1
1002
}
0
DIMENSION
8
2
6
CONTINUOUS
62
6
2
*D28
10
131.17427000000001
20
101.18608999999999
30
0.
11
111.62427
21
103.02009
31
0.
70
128
13
92.074268000000004
23
84.804694999999995
33
0.
14
131.17427000000001
24
84.804693999999998
34
0.
3
DSTYLE1
1001
ACAD
1000
DSTYLE
1002
{
1070
173
1070
0
1070
5
1000
_AH1
1070
47
1040
.4
1070
48
1040
.4
1070
284
1070
8
1002
}
0
CIRCLE
8
2
6
CONTINUOUS
62
7
10
118.48427
20
80.054693999999998
30
0.
40
2.4249999999999998
0
LINE
8
2
6
CENTERLINE
62
3
10
104.76427
20
77.054693999999998
30
0.
11
104.76427
21
83.054693999999998
31
0.
0
CIRCLE
8
2
6
CONTINUOUS
62
7
10
104.76427
20
80.054693999999998
30
0.
40
2.4249999999999998
0
CIRCLE
8
2
6
CONTINUOUS
62
7
10
111.62427
20
80.054693999999998
30
0.
40
2.4249999999999998
0
TEXT
8
2
6
CONTINUOUS
62
1
10
106.79421000000001
20
81.893613999999999
30
0.
40
1.
1
A1
41
.75
0
TEXT
8
2
6
CONTINUOUS
62
1
10
113.82883
20
81.894103999999999
30
0.
40
1.
1
A2
41
.75
0
LINE
8
2
6
CENTERLINE
62
3
10
118.48427
20
77.054693999999998
30
0.
11
118.48427
21
83.054693999999998
31
0.
0
TEXT
8
2
6
CONTINUOUS
62
1
10
120.76353
20
81.884711999999993
30
0.
40
1.
1
A3
41
.75
0
CIRCLE
8
2
6
CONTINUOUS
62
2
10
118.31532
20
144.59362999999999
30
0.
40
2.6400000000000001
0
CIRCLE
8
2
6
CONTINUOUS
62
2
10
118.31532
20
144.59362999999999
30
0.
40
2.4249999999999998
0
CIRCLE
8
2
6
CONTINUOUS
62
2
10
104.59532
20
144.59362999999999
30
0.
40
2.4249999999999998
0
CIRCLE
8
2
6
CONTINUOUS
62
2
10
104.59532
20
144.59362999999999
30
0.
40
2.6400000000000001
0
TEXT
8
2
6
CONTINUOUS
62
1
10
102.42319999999999
20
142.76361
30
0.
40
1.
1
A1
50
180.
41
.75
0
CIRCLE
8
2
6
CONTINUOUS
62
2
10
111.45532
20
144.59362999999999
30
0.
40
2.6400000000000001
0
CIRCLE
8
2
6
CONTINUOUS
62
2
10
111.45532
20
144.59362999999999
30
0.
40
2.4249999999999998
0
TEXT
8
2
6
CONTINUOUS
62
1
10
109.25076
20
142.75422
30
0.
40
1.
1
A2
50
180.
41
.75
0
TEXT
8
2
6
CONTINUOUS
62
1
10
115.96184
20
142.61089999999999
30
0.
40
1.
1
A3
50
180.
41
.75
0
DIMENSION
8
2
6
CONTINUOUS
62
6
2
*D29
10
182.11571000000001
20
153.96863999999999
30
0.
11
187.73311000000001
21
156.53181000000001
31
0.
70
128
1
6.3
13
176.11571000000001
23
149.93979999999999
33
0.
14
182.11571000000001
24
147.03980000000001
34
0.
3
DSTYLE3
1001
ACAD
1000
DSTYLE
1002
{
1070
173
1070
0
1070
5
1000
_AH1
1070
47
1040
0.
1070
284
1070
8
1002
}
0
DIMENSION
8
2
6
CONTINUOUS
62
6
2
*D30
10
118.48427
20
89.615909000000002
30
0.
11
105.91958
21
92.449909000000005
31
0.
70
128
13
111.62427
23
87.189110999999997
33
0.
14
118.48427
24
83.054693999999998
34
0.
3
DSTYLE4
1001
ACAD
1000
DSTYLE
1002
{
1070
173
1070
0
1070
5
1000
_AH1
1002
}
0
DIMENSION
8
2
6
CONTINUOUS
62
6
2
*D31
10
125.37427
20
96.270827999999995
30
0.
11
111.62427
21
98.104827999999998
31
0.
70
128
13
97.874268000000001
23
83.854693999999995
33
0.
14
125.37427
24
83.854693999999995
34
0.
3
DSTYLE5
1001
ACAD
1000
DSTYLE
1002
{
1070
173
1070
0
1070
5
1000
_AH1
1070
47
1040
.3
1070
48
1040
.3
1070
284
1070
8
1002
}
0
DIMENSION
8
2
6
CONTINUOUS
62
6
2
*D32
10
128.27427
20
68.278802999999996
30
0.
11
111.62427
21
70.112803
31
0.
70
128
13
94.974267999999995
23
77.054693999999998
33
0.
14
128.27427
24
77.054693999999998
34
0.
3
DSTYLE6
1001
ACAD
1000
DSTYLE
1002
{
1070
173
1070
0
1070
5
1000
_AH1
1070
47
1040
.15
1070
48
1040
.15
1070
284
1070
8
1002
}
0
DIMENSION
8
2
6
CONTINUOUS
62
6
2
*D33
10
176.11571000000001
20
133.30672999999999
30
0.
11
182.14223999999999
21
135.8699
31
0.
70
128
1
0.8
13
175.21571
23
137.43979999999999
33
0.
14
176.11571000000001
24
137.43979999999999
34
0.
3
DSTYLE7
1001
ACAD
1000
DSTYLE
1002
{
1070
173
1070
0
1070
5
1000
_AH1
1070
47
1040
.2
1070
284
1070
8
1002
}
0
INSERT
8
2
2
*F17
10
138.9666
20
88.299589999999995
30
0.
50
360.
0
TEXT
8
1
6
CONTINUOUS
62
7
10
280.28966000000003
20
25.756426999999999
30
0.
40
3.
1
1,5:1
41
.75
0
TEXT
8
1
6
CONTINUOUS
62
7
10
282.57932
20
12.558382
30
0.
40
3.
1
1
41
.75
0
TEXT
8
1
6
CONTINUOUS
62
7
10
287.86380000000003
20
8.061985
30
0.
40
3.
1
1
41
.75
0
TEXT
8
1
6
CONTINUOUS
62
7
10
166.54379
20
31.957318999999998
30
0.
40
2.
1
13/11/01
41
.75
72
1
11
170.14379
21
31.957318999999998
31
0.
0
TEXT
8
1
6
CONTINUOUS
62
7
10
185.07501999999999
20
32.787511000000002
30
0.
40
0.
1
AA
0
TEXT
8
1
6
CONTINUOUS
62
7
10
183.19953000000001
20
32.152180000000001
30
0.
40
2.
1
AF
41
.75
0
INSERT
8
2
2
*F20
10
79.664818999999994
20
130.79767000000001
30
0.
50
360.
0
INSERT
8
2
2
*F16
10
95.248152000000005
20
132.46433999999999
30
0.
0
DIMENSION
8
2
6
CONTINUOUS
62
6
2
*D34
10
96.116640000000004
20
79.007029000000003
30
0.
11
79.256473
21
88.125018999999995
31
0.
70
3
15
93.831895000000003
25
81.102247000000006
35
0.
40
1.3333333000000001
3
DSTYLE8
1001
ACAD
1000
DSTYLE
1002
{
1070
173
1070
1
1070
7
1000
_AH1
1070
6
1000
_AH1
1070
47
1040
.1
1070
48
1040
.1
1070
284
1070
8
1002
}
0
LINE
8
2
6
CONTINUOUS
62
6
10
123.75532
20
143.31235000000001
30
0.
11
123.75532
21
141.20081999999999
31
0.
0
LINE
8
2
6
CONTINUOUS
62
6
10
99.155317999999994
20
143.09362999999999
30
0.
11
99.155317999999994
21
141.10551000000001
31
0.
0
DIMENSION
8
2
6
CONTINUOUS
62
6
2
*D35
10
123.75532
20
132.38847999999999
30
0.
11
111.45532
21
134.95164
31
0.
70
128
13
99.155317999999994
23
141.10551000000001
33
0.
14
123.75532
24
141.20081999999999
34
0.
3
DSTYLE9
1001
ACAD
1000
DSTYLE
1002
{
1070
173
1070
0
1070
5
1000
_AH1
1070
47
1040
0.
1070
284
1070
8
1002
}
0
ARC
8
2
6
CONTINUOUS
62
7
10
102.18429999999999
20
145.99363
30
0.
40
2.
50
90.
51
170.
0
ARC
8
2
6
CONTINUOUS
62
7
10
102.18429999999999
20
145.99363
30
0.
40
2.5
50
90.
51
170.
0
ARC
8
2
6
CONTINUOUS
62
7
10
101.65532
20
143.19363000000001
30
0.
40
2.5
50
170.
51
270.
0
ARC
8
2
6
CONTINUOUS
62
7
10
101.65532
20
143.19363000000001
30
0.
40
2.
50
170.
51
270.
0
ARC
8
2
6
CONTINUOUS
62
7
10
120.72633999999999
20
145.99363
30
0.
40
2.
50
9.9999982000000003
51
90.
0
ARC
8
2
6
CONTINUOUS
62
7
10
120.72633999999999
20
145.99363
30
0.
40
2.5
50
9.9999982000000003
51
90.
0
ARC
8
2
6
CONTINUOUS
62
7
10
121.25532
20
143.19363000000001
30
0.
40
2.
50
270.
51
370.
0
ARC
8
2
6
CONTINUOUS
62
7
10
121.25532
20
143.19363000000001
30
0.
40
2.5
50
270.
51
370.
0
DIMENSION
8
2
6
CONTINUOUS
62
6
2
*D36
10
136.94566
20
140.69363000000001
30
0.
11
134.38248999999999
21
134.38172
31
0.
70
128
13
120.77634
23
148.49363
33
0.
14
121.30531999999999
24
140.69363000000001
34
0.
50
90.
3
DSTYLE10
1001
ACAD
1000
DSTYLE
1002
{
1070
173
1070
0
1070
5
1000
_AH1
1070
47
1040
0.
1070
284
1070
8
1002
}
0
ARC
8
2
6
CONTINUOUS
62
7
10
93.405315999999999
20
139.84362999999999
30
0.
40
1.4999989
50
180.
51
270.
0
ARC
8
2
6
CONTINUOUS
62
7
10
93.405315999999999
20
149.34362999999999
30
0.
40
1.4999989
50
90.
51
180.
0
LINE
8
2
6
CONTINUOUS
62
7
10
131.00532000000001
20
116.62212
30
0.
11
131.00532000000001
21
115.72212
31
0.
0
INSERT
8
2
2
*F19
10
82.966269999999994
20
155.58389
30
0.
0
LINE
8
2
6
CENTERLINE
62
7
10
94.805318
20
141.61661000000001
30
0.
11
94.805318
21
147.55999
31
0.
0
LINE
8
2
6
CENTERLINE
62
7
10
104.59532
20
141.48093
30
0.
11
104.59532
21
147.63676000000001
31
0.
0
LINE
8
2
6
CENTERLINE
62
7
10
111.45532
20
137.68147999999999
30
0.
11
111.45532
21
151.41319999999999
31
0.
0
LINE
8
2
6
CENTERLINE
62
7
10
118.31532
20
141.46874
30
0.
11
118.31532
21
147.69149999999999
31
0.
0
LINE
8
2
6
CENTERLINE
62
7
10
128.10532000000001
20
141.85373999999999
30
0.
11
128.10532000000001
21
147.41329999999999
31
0.
0
LINE
8
2
6
CENTERLINE
62
7
10
91.905317999999994
20
144.59362999999999
30
0.
11
132.06225000000001
21
144.59362999999999
31
0.
0
LINE
8
2
6
CENTERLINE
62
7
10
91.905317999999994
20
144.59362999999999
30
0.
11
90.807131999999996
21
144.57999000000001
31
0.
0
ARC
8
2
6
CONTINUOUS
62
7
10
129.73804000000001
20
75.242233999999996
30
0.
40
1.4375834999999999
50
270.44742000000002
51
362.49018000000001
0
INSERT
8
2
2
*F15
10
140.13532000000001
20
150.91407000000001
30
0.
50
360.
0
INSERT
8
2
2
*F14
10
136.75314
20
90.073386999999997
30
0.
0
DIMENSION
8
2
6
CONTINUOUS
62
6
2
*D37
10
136.63005000000001
20
74.654694000000006
30
0.
11
134.79605000000001
21
68.496739000000005
31
0.
70
128
13
123.77427
23
85.454694000000003
33
0.
14
122.41200000000001
24
74.654694000000006
34
0.
50
90.
3
DSTYLE5
1001
ACAD
1000
DSTYLE
1002
{
1070
173
1070
0
1070
5
1000
_AH1
1070
47
1040
.3
1070
48
1040
.3
1070
284
1070
8
1002
}
0
LINE
8
2
6
CONTINUOUS
62
7
10
138.95241999999999
20
90.073386999999997
30
0.
11
136.75314
21
90.073386999999997
31
0.
0
INSERT
8
2
2
*F18
10
137.00442000000001
20
152.24741
30
0.
0
INSERT
8
2
2
*F13
10
84.148967999999996
20
68.068347000000003
30
0.
0
LINE
8
2
6
CONTINUOUS
62
7
10
137.00442000000001
20
152.24741
30
0.
11
140.13532000000001
21
152.24741
31
0.
0
ENDSEC
0
EOF
